Thean [Original Background Score] (Tamil) [2021] (Think Music)

[24-Bit 48.0 kHz] Thean [Original Background Score] (Tamil) [2021] (Think Music) 2021

No permission to download
Thean [Original Background Score] (Tamil) [2021] (Think Music)

up1gbgnij1opc_600.jpg

Album / Movie : Thean [Original Background Score]
Music / Composer : Sanath Bharadwaj
Year Released: 2021

Label: Think Music
Language: Tamil OST
Ripper Note: Enjoy

Tracklist :

1 - In Pursuit - Sanath Bharadwaj
2 - Together Like No Other - Sanath Bharadwaj
3 - The Denial - Sanath Bharadwaj
4 - Agony - Sanath Bharadwaj
5 - Inevitable - Sanath Bharadwaj
6 - Endure - Sanath Bharadwaj
7 - Gloomy - Sanath Bharadwaj
8 - Pain - Sanath Bharadwaj
9 - The Past - Sanath Bharadwaj
10 - Despair - Sanath Bharadwaj


Spek :

10. Despair.flac.png

Quality Check log :
Code:
foobar2000 1.6.6 / Dynamic Range Meter 1.1.1
log date: 2021-09-10 11:22:50

--------------------------------------------------------------------------------
Analyzed: Sanath Bharadwaj / Thean (Original Background Score)
--------------------------------------------------------------------------------

DR         Peak         RMS     Duration Track
--------------------------------------------------------------------------------
DR8       -4.10 dB   -14.63 dB      1:01 01-In Pursuit
DR7        0.00 dB    -9.94 dB      1:32 02-Together Like No Other
DR6        0.00 dB    -7.92 dB      1:40 03-The Denial
DR5       -1.70 dB    -8.82 dB      1:16 04-Agony
DR6       -5.80 dB   -13.83 dB      1:04 05-Inevitable
DR4       -1.57 dB   -11.29 dB      1:04 06-Endure
DR9       -0.08 dB   -11.32 dB      1:19 07-Gloomy
DR8       -4.10 dB   -15.13 dB      1:04 08-Pain
DR7       -4.10 dB   -15.03 dB      1:01 09-The Past
DR10      -1.30 dB   -13.74 dB      1:27 10-Despair
--------------------------------------------------------------------------------

Number of tracks:  10
Official DR value: DR7

Samplerate:        48000 Hz
Channels:          2
Bits per sample:   24
Bitrate:           1493 kbps
Codec:             FLAC
================================================================================
  • Like
Reactions: AK.Arun and isairaj