Periya Veetu Pannakkaran (Tamil) [1990] (IMM) [Official ReMaster Edition]

[16-Bit 44.0 kHz] Periya Veetu Pannakkaran (Tamil) [1990] (IMM) [Official ReMaster Edition] 1990

No permission to download
Periya Veetu Pannakkaran (Tamil) [1990] (IMM) [Official ReMaster Edition]

nda85c0xx9ydb_600.jpg

Album / Movie : Periya Veetu Pannakkaran
Music / Composer : Ilaiyaraaja
Year Released: 1990

Label: IMM.
Language: Tamil
Ripper Note: Official Re-Master Edition !

Tracklist :

1 - Malligaiye Malligaiye - K. S. Chithra
2 - Muthu Muthu Medai - S. Janaki
3 - Nikkattumaa Pogattuma - Mano
4 - Pallaakku Kuthiraiyile - Malaysia Vasudevan
5 - Pattikaattu Paattu - Malaysia Vasudevan
6 - Summa Nee - Mano
7 - Vanthaara Vazha Vaikkum - Ilaiyaraaja



Spek :

06 - Summa Nee.flac.png

Quality Check log :
Code:
foobar2000 1.6.6 / Dynamic Range Meter 1.1.1
log date: 2021-09-02 17:33:37

--------------------------------------------------------------------------------
Analyzed: Ilaiyaraaja / Periya Veetu Pannakkaran (1)
          K. S. Chithra / Periya Veetu Pannakkaran (2)
          Malaysia Vasudevan / Periya Veetu Pannakkaran (3-4)
          Mano / Periya Veetu Pannakkaran (5-6)
          S. Janaki / Periya Veetu Pannakkaran (7)
--------------------------------------------------------------------------------

DR         Peak         RMS     Duration Track
--------------------------------------------------------------------------------
DR9        0.00 dB   -11.49 dB      4:05 07-Vanthaara Vazha Vaikkum
DR8        0.00 dB   -10.60 dB      4:54 01-Malligaiye Malligaiye
DR11       0.00 dB   -11.75 dB      4:40 04-Pallaakku Kuthiraiyile
DR9        0.00 dB   -11.03 dB      4:46 05-Pattikaattu Paattu
DR7        0.00 dB    -9.62 dB      5:03 03-Nikkattumaa Pogattuma
DR9        0.00 dB   -10.95 dB      4:25 06-Summa Nee
DR8        0.00 dB   -10.26 dB      4:52 02-Muthu Muthu Medai
--------------------------------------------------------------------------------

Number of tracks:  7
Official DR value: DR9

Samplerate:        44100 Hz
Channels:          2
Bits per sample:   16
Bitrate:           765 kbps
Codec:             FLAC
================================================================================
Author
Axel
Downloads
10
Views
119
First release
Last update
Rating
0.00 star(s) 0 ratings