Paagal (Telugu) [2021] (Aditya Music)

[16-Bit 44.0 kHz] Paagal (Telugu) [2021] (Aditya Music) 2021

No permission to download
Paagal (Telugu) [2021] (Aditya Music)

qbjbo3xnpuvqa_600.jpg

Album / Movie : Paagal
Music / Composer : Radhan & A Leon James*
Year Released: 2021

Label: Aditya Music
Language: Telugu
Ripper Note: Enjoy :cool:

Tracklist :

1 - Paagal - Ram Miriyala & Mama Sing
2 - Saradaga Kasepaina - Karthik & Purnima
3 - Ee Single Chinnode - Benny Dayal
4 - Aagave Nuvvagave - Sid Sriram
5 - Amma Amma Neevennela - Sid Sriram, Veda & Vagdevi
6 - Enno Ennenno Vinnan Gaani - Anthony Daasan
7 - You Are My Love - Rahul Sipligunj
8 - Kanapadava* (Male version) - Anand Aravindakshan
9 - Kanapadava* (Female version) - Sameera Bharadwaj



Spek :

03. Ee Single Chinnode.flac.png

Quality Check log :
Code:
foobar2000 1.6.6 / Dynamic Range Meter 1.1.1
log date: 2021-08-19 10:29:15

--------------------------------------------------------------------------------
Analyzed: Anand Aravindakshan / Paagal (1)
          Anthony Daasan / Paagal (2)
          Benny Dayal / Paagal (3)
          Karthik & Purnima / Paagal (4)
          Rahul Sipligunj / Paagal (5)
          Ram Miriyala & Mama Sing / Paagal (6)
          Sameera Bharadwaj / Paagal (7)
          Sid Sriram, Veda & Vagdevi / Paagal (8)
          Sid Sriram / Paagal (9)
--------------------------------------------------------------------------------

DR         Peak         RMS     Duration Track
--------------------------------------------------------------------------------
DR5       -0.83 dB    -7.34 dB      1:21 08-Kanapadava (Male version)
DR8       -0.50 dB   -10.59 dB      2:37 06-Enno Ennenno Vinnan Gaani
DR5        0.00 dB    -6.97 dB      4:02 03-Ee Single Chinnode
DR8        0.00 dB   -10.61 dB      4:42 02-Saradaga Kasepaina
DR10      -0.22 dB   -11.75 dB      2:55 07-You Are My Love
DR8        0.00 dB   -10.37 dB      3:11 01-Paagal
DR5       -0.79 dB    -7.12 dB      1:21 09-Kanapadava (Female version)
DR8       -0.36 dB   -10.90 dB      5:32 05-Amma Amma Neevennela
DR7       -0.20 dB    -8.95 dB      6:03 04-Aagave Nuvvagave
--------------------------------------------------------------------------------

Number of tracks:  9
Official DR value: DR7

Samplerate:        44100 Hz
Channels:          2
Bits per sample:   16
Bitrate:           816 kbps
Codec:             FLAC
================================================================================
  • Like
Reactions: konquer