Oh Manapenne [Original Background Score] (Tamil) [2021] (Think Music)

[24-Bit 48.0 kHz] Oh Manapenne [Original Background Score] (Tamil) [2021] (Think Music) 2021

No permission to download
Oh Manapenne [Original Background Score] (Tamil) [2021] (Think Music)

kisg653cbjjfb_600.jpg

Album / Movie : Oh Manapenne (Original Background Score)
Music / Composer : Vishal Chandrashekhar
Year Released: 2021

Label: Think Music.
Language: Tamil
Ripper Note: Enjoy the Quality !

Tracklist :

1 - Ponnu Paaka Paiyan - Vishal Chandrashekhar
2 - The Samosa - A Miracle, in Making! - Vishal Chandrashekhar
3 - Lazy Kanna - Vishal Chandrashekhar
4 - Bit Adichavdu Pass Pannidu - Vishal Chandrashekhar
5 - Coffe Shop at 5 - Vishal Chandrashekhar
6 - First Love - Vishal Chandrashekhar
7 - Nee Yenadharuginil Nee - Reprise - Vishal Chandrashekhar
8 - Karthik Jaakiradhai - Vishal Chandrashekhar
9 - Karthik Jaakiradhai - Violin Flip - Vishal Chandrashekhar
10 - How about a Food Truck - Vishal Chandrashekhar
11 - Arjun doesn't come back - Vishal Chandrashekhar
12 - Selvi Serial Uncle! - Vishal Chandrashekhar
13 - Polar Opposites - Vishal Chandrashekhar
14 - Third Type - Vishal Chandrashekhar
15 - Spreads Joy Keeps None - Vishal Chandrashekhar
16 - Congrats, To Us! - Vishal Chandrashekhar
17 - Madras Darbar - Vishal Chandrashekhar
18 - Mahalakshmi! - Vishal Chandrashekhar
19 - Ray Of Hope - Vishal Chandrashekhar
20 - You're more than a son to me! - Vishal Chandrashekhar
21 - You complete Me! - Vishal Chandrashekhar


Spek :

01. Ponnu Paaka Paiyan.flac.png

Dynamic Range log :
Code:
foobar2000 1.6.6 / Dynamic Range Meter 1.1.1
log date: 2021-12-06 22:22:36

--------------------------------------------------------------------------------
Analyzed: Vishal Chandrashekhar / Oh Manapenne (Original Background Score)
--------------------------------------------------------------------------------

DR         Peak         RMS     Duration Track
--------------------------------------------------------------------------------
DR11       0.00 dB   -15.23 dB      3:25 01-Ponnu Paaka Paiyan
DR10       0.00 dB   -13.31 dB      1:01 02-The Samosa - A Miracle, in Making!
DR13       0.00 dB   -16.46 dB      1:04 03-Lazy Kanna
DR8        0.00 dB   -11.65 dB      1:52 04-Bit Adichavdu Pass Pannidu
DR10       0.00 dB   -13.67 dB      2:21 05-Coffe Shop at 5
DR9        0.00 dB   -11.80 dB      2:39 06-First Love
DR11       0.00 dB   -15.85 dB      1:28 07-Nee Yenadharuginil Nee - Reprise
DR11       0.00 dB   -12.61 dB      1:51 08-Karthik Jaakiradhai
DR10       0.00 dB   -12.06 dB      1:53 09-Karthik Jaakiradhai - Violin Flip
DR12      -3.16 dB   -21.50 dB      3:32 10-How about a Food Truck
DR13      -0.34 dB   -18.91 dB      2:52 11-Arjun doesn't come back
DR13       0.00 dB   -16.63 dB      1:33 12-Selvi Serial Uncle!
DR15      -3.81 dB   -22.96 dB      0:57 13-Polar Opposites
DR13     -12.91 dB   -30.20 dB      1:09 14-Third Type
DR11     -11.77 dB   -26.85 dB      0:59 15-Spreads Joy Keeps None
DR11      -9.58 dB   -23.35 dB      1:01 16-Congrats, To Us!
DR11      -4.42 dB   -19.06 dB      1:16 17-Madras Darbar
DR11      -8.98 dB   -25.03 dB      3:08 18-Mahalakshmi!
DR10      -2.31 dB   -17.15 dB      1:53 19-Ray Of Hope
DR9      -10.76 dB   -26.14 dB      1:54 20-You're more than a son to me!
DR8       -1.90 dB   -15.71 dB      6:11 21-You complete Me!
--------------------------------------------------------------------------------

Number of tracks:  21
Official DR value: DR11

Samplerate:        48000 Hz
Channels:          2
Bits per sample:   24
Bitrate:           1492 kbps
Codec:             FLAC
================================================================================