Naan Kadavul (Tamil) [2009] (Pyramid Saimira Music) [1st Edition]

[Audio CD] Naan Kadavul (Tamil) [2009] (Pyramid Saimira Music) [1st Edition] 2009

No permission to download
Naan Kadavul (Tamil) [2009] (Pyramid Saimira Music) [1st Edition]



Album / Movie : Naan Kadavul
Music / Composer : Ilaiyaraaja
Year Released: 2009

Label: Pyramid Saimira Music.
Language: Tamil
Ripper Note: Enjoy !

Tracklist :

1 - Om Shivo Hum - Vijay Prakash
2 - Kannil Paarvai - Shreya Ghoshal
3 - Maadha Un Kovilil - Madhumitha
4 - Pitchai Paathiram - Madhu Balakrishnan
5 - Amma Un Pillai - Sadhana Sargam
6 - Oru Kaatril - Ilaiyaraaja


Spek :

01. Om Shivo Hum.wav.png

Quality Check log :
Code:
foobar2000 1.6.6 / Dynamic Range Meter 1.1.1
log date: 2021-10-15 22:40:36

--------------------------------------------------------------------------------
Analyzed: Ilaiyaraaja / Naan Kadavul (1)
          Madhu Balakrishnan / Naan Kadavul (2)
          Madhumitha / Naan Kadavul (3)
          Sadhana Sargam / Naan Kadavul (4)
          Shreya Ghoshal / Naan Kadavul (5)
          Vijay Prakash / Naan Kadavul (6)
--------------------------------------------------------------------------------

DR         Peak         RMS     Duration Track
--------------------------------------------------------------------------------
DR7       -1.01 dB    -9.97 dB      4:52 06-Oru Kaatril
DR7       -1.51 dB    -9.60 dB      5:07 04-Pitchai Paathiram
DR7       -1.51 dB   -10.33 dB      0:42 03-Maadha Un Kovilil
DR6       -1.51 dB    -9.41 dB      5:03 05-Amma Un Pillai
DR7       -1.01 dB   -10.37 dB      4:54 02-Kannil Paarvai
DR7       -1.55 dB   -10.29 dB      6:07 01-Om Shivo Hum
--------------------------------------------------------------------------------

Number of tracks:  6
Official DR value: DR7

Samplerate:        44100 Hz
Channels:          2
Bits per sample:   16
Bitrate:           1411 kbps
Codec:             PCM
================================================================================
Author
Axel
Downloads
4
Views
130
First release
Last update
Rating
0.00 star(s) 0 ratings