Murungakkai Chips (Tamil) [2021] (Sony Music)

[24-Bit 48.0 kHz] Murungakkai Chips (Tamil) [2021] (Sony Music) 2021

No permission to download
Murungakkai Chips (Tamil) [2021] (Sony Music)

dax785rxokphb_600.jpg

Album / Movie : Murungakkai Chips
Music / Composer : Dharan Kumar
Year Released: 2021

Label: Sony Music
Language: Tamil
Ripper Note: Dharan 🔥

Tracklist :

1 - Edho Solla - Sid Sriram & Dharan Kumar
2 - Talku Lessu Worku Moreu - Sam Vishal & K. Sivaangi & Dharan Kumar
3 - Wildu Strawberry - Priya Mali & Dharan Kumar



Spek :

03. Wildu Strawberry.flac.png

Quality Check log :
Code:
foobar2000 1.6.6 / Dynamic Range Meter 1.1.1
log date: 2021-08-17 22:12:17

--------------------------------------------------------------------------------
Analyzed: Priya Mali & Dharan Kumar / Murungakkai Chips  (1)
          Sam Vishal & K. Sivaangi & Dharan Kumar / Murungakkai Chips  (2)
          Sid Sriram & Dharan Kumar / Murungakkai Chips  (3)
--------------------------------------------------------------------------------

DR         Peak         RMS     Duration Track
--------------------------------------------------------------------------------
DR6       -0.50 dB    -9.30 dB      4:47 03-Wildu Strawberry
DR5       -0.94 dB    -8.10 dB      4:15 02-Talku Lessu Worku Moreu
DR4       -0.20 dB    -6.49 dB      5:03 01-Edho Solla
--------------------------------------------------------------------------------

Number of tracks:  3
Official DR value: DR5

Samplerate:        48000 Hz
Channels:          2
Bits per sample:   24
Bitrate:           1730 kbps
Codec:             FLAC
================================================================================