Kuruthi (Malayalam) [2021] (Goodwill Entertainments)

[24-Bit 48.0 kHz] Kuruthi (Malayalam) [2021] (Goodwill Entertainments) 2021

No permission to download
Kuruthi (Malayalam) [2021] (Goodwill Entertainments)

dsmtvis9mov0b_600.jpg

Album / Movie : Kuruthi
Music / Composer : Jakes Bejoy
Year Released: 2021

Label: Goodwill Entertainments.
Language: Malayalam
Ripper Note: Enjoy

Tracklist :

1 - Vetta Mrigam - Jakes Bejoy, Zia l Haq & Resmi Sateesh
2 - Mankoodil - Jakes Bejoy & Keshav Vinod
3 - Laiq - The Fury of Hate - Jakes Bejoy


Spek :

02. Mankoodil.flac.png

Quality Check log :
Code:
foobar2000 1.6.6 / Dynamic Range Meter 1.1.1
log date: 2021-10-14 09:14:18

--------------------------------------------------------------------------------
Analyzed: Jakes Bejoy & Keshav Vinod / Kuruthi (1)
          Jakes Bejoy, Zia l Haq & Resmi Sateesh / Kuruthi (2)
          Jakes Bejoy / Kuruthi (3)
--------------------------------------------------------------------------------

DR         Peak         RMS     Duration Track
--------------------------------------------------------------------------------
DR7       -0.06 dB    -9.81 dB      5:05 02-Mankoodil
DR5       -0.17 dB    -7.16 dB      4:05 01-Vetta Mrigam
DR7       -0.03 dB    -9.09 dB      1:27 03-Laiq - The Fury of Hate
--------------------------------------------------------------------------------

Number of tracks:  3
Official DR value: DR7

Samplerate:        48000 Hz
Channels:          2
Bits per sample:   24
Bitrate:           1519 kbps
Codec:             FLAC
================================================================================
  • Like
Reactions: Arasu123