Kakki Sattai (Tamil) [1985] (Audio Xpress) [Re-Mastered Edition]

[Audio CD] Kakki Sattai (Tamil) [1985] (Audio Xpress) [Re-Mastered Edition] 1985

No permission to download
Kakki Sattai (Tamil) [1985] (Audio Xpress) [Re-Mastered Edition]



Album / Movie : Kakki Sattai
Music / Composer : Ilaiyaraaja
Year Released: 1985

Label: Audio Xpress
Language: Tamil
Ripper Note: Re-Mastered Edition & Quality is 🔥

Tracklist :

1 - Kanmaniye Pesu - S.P.Balasubramaniyam, S.Janaki
2 - Namma Singaari Sarakku - S.P.Balasubramaniyam
3 - Poo Potta Thaavani - S.P.Balasubramaniyam, S.Janaki
4 - Vaanile Thenila - S.P.Balasubramaniyam, S.Janaki
5 - Pattukkannam - S.P.Balasubramaniyam, P.Susheela
6 - Kanmaniye Pesu [Repeat] - S.P.Balasubramaniyam, S.Janaki
7 - Vaanile Thenila [Repeat] - S.P.Balasubramaniyam, S.Janaki



Spek :

03. Poo Potta Thaavani.wav.png

Quality Check log :
Code:
foobar2000 1.6.4 / Dynamic Range Meter 1.1.1
log date: 2021-08-28 12:29:58

--------------------------------------------------------------------------------
Analyzed: S.P.Balasubramaniyam, P.Susheela / Kakki Sattai (1)
          S.P.Balasubramaniyam, S.Janaki / Kakki Sattai (2-6)
          S.P.Balasubramaniyam / Kakki Sattai (7)
--------------------------------------------------------------------------------

DR         Peak         RMS     Duration Track
--------------------------------------------------------------------------------
DR7       -0.63 dB    -9.17 dB      5:14 05-Pattukkannam
DR7       -0.63 dB    -9.18 dB      4:37 01-Kanmaniye Pesu
DR8       -0.63 dB   -10.79 dB      4:22 03-Poo Potta Thaavani
DR8       -0.63 dB   -10.53 dB      4:35 04-Vaanile Thenila
DR7       -0.63 dB    -9.18 dB      4:37 06-Kanmaniye Pesu [Repeat]
DR8       -0.63 dB   -10.48 dB      4:33 07-Vaanile Thenila [Repeat]
DR7       -0.63 dB    -9.45 dB      4:30 02-Namma Singaari Sarakku
--------------------------------------------------------------------------------

Number of tracks:  7
Official DR value: DR8

Samplerate:        44100 Hz
Channels:          2
Bits per sample:   16
Bitrate:           1411 kbps
Codec:             PCM
================================================================================