Delhi-6 (Hindi) [2009] (T-Series) [1st Edition]

[Audio CD] Delhi-6 (Hindi) [2009] (T-Series) [1st Edition] 2009

No permission to download
Delhi-6 (Hindi) [2009] (T-Series) [1st Edition]



Album / Movie : Delhi-6
Music / Composer : A. R. Rahman
Year Released: 1969

Label: T-Series
Language: Tamil

Tracklist :

1 - Masakali - Mohit Chauhan
2 - Arziyan - Javed Ali, Kailash Kher
3 - Dilli-6 - Blaaze, Benny Dayal, Tanvi Shah, Viviane Chaix, Claire
4 - Rehna Tu - A. R. Rahman, Benny Dayal, Tanvi Shah, Rishu Raj
5 - Hey Kaala Bandar - Karthik, Naresh Iyer, Srinivas, Bonnie Chakraborty, Ember
6 - Dil Gira Dafatan - Ash King, Chinmayee
7 - Genda Phool - Rekha Bhardwaj, Shrraddha Pandit, Sujata Mazumder, Mahathi
8 - Bhor Bhaye - Shreya Ghoshal, Ustad Bade Ghulam Ali Khan
9 - Aarti (Tumre Bhavan Mein) - Rekha Bhardwaj, Kishori Amonkar, Shrraddha Pandit, Sujata Mazumder
10 - Noor - Amitabh Bachchan


Spek :

01. Masakali.wav.png

Quality Check log :
Code:
foobar2000 1.6.6 / Dynamic Range Meter 1.1.1
log date: 2021-07-27 13:18:27

--------------------------------------------------------------------------------
Analyzed: A. R. Rahman, Benny Dayal, Tanvi Shah, Rishu Raj / Delhi-6 (1)
          Amitabh Bachchan / Delhi-6 (2)
          Ash King, Chinmayee / Delhi-6 (3)
          Blaaze, Benny Dayal, Tanvi Shah, Viviane Chaix, Claire / Delhi-6 (4)
          Javed Ali, Kailash Kher / Delhi-6 (5)
          Karthik, Naresh Iyer, Srinivas, Bonnie Chakraborty, Ember / Delhi-6 (6)
          Mohit Chauhan / Delhi-6 (7)
          Rekha Bhardwaj, Kishori Amonkar, Shrraddha Pandit, Sujata Mazumder / Delhi-6 (8)
          Rekha Bhardwaj, Shrraddha Pandit, Sujata Mazumder, Mahathi / Delhi-6 (9)
          Shreya Ghoshal, Ustad Bade Ghulam Ali Khan     / Delhi-6 (10)
--------------------------------------------------------------------------------

DR         Peak         RMS     Duration Track
--------------------------------------------------------------------------------
DR8       -0.54 dB   -10.07 dB      6:51 04-Rehna Tu
DR10      -1.20 dB   -15.73 dB      0:50 10-Noor
DR7       -0.88 dB   -10.66 dB      5:39 06-Dil Gira Dafatan
DR9        0.00 dB   -11.24 dB      3:36 03-Dilli-6
DR9       -0.43 dB   -10.48 dB      8:41 02-Arziyan
DR9        0.00 dB   -10.79 dB      5:53 05-Hey Kaala Bandar
DR7       -0.51 dB    -9.34 dB      4:51 01-Masakali
DR10      -2.23 dB   -13.80 dB      3:01 09-Aarti (Tumre Bhavan Mein)
DR10      -0.93 dB   -13.22 dB      2:50 07-Genda Phool
DR10      -0.72 dB   -13.07 dB      3:19 08-Bhor Bhaye
--------------------------------------------------------------------------------

Number of tracks:  10
Official DR value: DR9

Samplerate:        44100 Hz
Channels:          2
Bits per sample:   16
Bitrate:           1411 kbps
Codec:             PCM
================================================================================