Bachelor (Tamil) [2021] (Think Music)

[24-Bit 48.0 kHz] Bachelor (Tamil) [2021] (Think Music) 2021

No permission to download
Bachelor (Tamil) [2021] (Think Music)

jd3ltgtc3xadc_600.jpg

Album / Movie : Bachelor
Music / Composer : A H Kaashif, G.V. Prakash Kumar, Dhibu Ninan Thomas, Navakkarai Naveen Prabanjam
Year Released: 2021

Label: Think Music.
Language: Tamil
Ripper Note: Enjoy the Quality !

Tracklist :

1 - Life of Bachelor - A H Kaashif, Navakkarai Naveen Prabanjam & Asal Kolaar
2 - Pachigalam Paravaigalam - G.V. Prakash Kumar & Navakkarai Naveen Prabanjam
3 - Adiye - Dhibu Ninan Thomas & Kapil Kapilan
4 - Kavan - Navakkarai Naveen Prabanjam
5 - Kaadhal Kanmani - G.V. Prakash Kumar & Swagatha S. Krishnan


Spek :

05. Kaadhal Kanmani.flac.png

Dynamic Range log :
Code:
foobar2000 1.6.6 / Dynamic Range Meter 1.1.1
log date: 2021-12-02 18:21:36

--------------------------------------------------------------------------------
Analyzed: A H Kaashif, Navakkarai Naveen Prabanjam & Asal Kolaar / Bachelor (1)
          Dhibu Ninan Thomas & Kapil Kapilan / Bachelor (2)
          G.V. Prakash Kumar & Navakkarai Naveen Prabanjam / Bachelor (3)
          G.V. Prakash Kumar & Swagatha S. Krishnan / Bachelor (4)
          Navakkarai Naveen Prabanjam / Bachelor (5)
--------------------------------------------------------------------------------

DR         Peak         RMS     Duration Track
--------------------------------------------------------------------------------
DR6       -0.11 dB    -8.46 dB      2:34 01-Life of Bachelor
DR6       -0.13 dB    -9.22 dB      4:32 03-Adiye
DR5       -0.30 dB    -7.90 dB      3:33 02-Pachigalam Paravaigalam
DR9       -0.10 dB   -10.38 dB      4:52 05-Kaadhal Kanmani
DR11       0.00 dB   -12.64 dB      1:32 04-Kavan
--------------------------------------------------------------------------------

Number of tracks:  5
Official DR value: DR7

Samplerate:        48000 Hz
Channels:          2
Bits per sample:   24
Bitrate:           1510 kbps
Codec:             FLAC
================================================================================