Vivaha Bhojanambu (Telugu) [2021] (Sony Music)

[24-Bit 48.0 kHz] Vivaha Bhojanambu (Telugu) [2021] (Sony Music) 2021

No permission to download
Vivaha Bhojanambu (Telugu) [2021] (Sony Music)

600x600bb.jpg

Album / Movie : Vivaha Bhojanambu
Music / Composer : Anivee
Year Released: 2021

Label: Sony Music
Language: Telugu

Tracklist :

1 - ABCD - Anivee, Inno Genga & Roll Rida
2 - Devi Kalyana Vaibogame - Anivee, Anthony Daasan & Chinmayi Sripaada
3 - Ra Ra - Anivee & Sambhavam
4 - What A Man - Anivee & Chowrastha Ran




Spek :

01. ABCD.flac.png

Quality Check log :
Code:
foobar2000 1.6.6 / Dynamic Range Meter 1.1.1
log date: 2021-07-29 18:36:03

--------------------------------------------------------------------------------
Analyzed: Anivee & Chowrastha Ran / Vivaha Bhojanambu  (1)
          Anivee & Sambhavam / Vivaha Bhojanambu  (2)
          Anivee, Anthony Daasan & Chinmayi Sripaada / Vivaha Bhojanambu  (3)
          Anivee, Inno Genga & Roll Rida / Vivaha Bhojanambu  (4)
--------------------------------------------------------------------------------

DR         Peak         RMS     Duration Track
--------------------------------------------------------------------------------
DR6       -1.00 dB    -8.50 dB      2:57 04-What A Man
DR6       -0.32 dB    -8.38 dB      1:47 03-Ra Ra
DR5       -0.32 dB    -8.18 dB      2:57 02-Devi Kalyana Vaibogame
DR5       -0.10 dB    -6.92 dB      3:38 01-ABCD
--------------------------------------------------------------------------------

Number of tracks:  4
Official DR value: DR6

Samplerate:        48000 Hz
Channels:          2
Bits per sample:   24
Bitrate:           1840 kbps
Codec:             FLAC
================================================================================