Varun Doctor (Telugu) [2021] (Sony Music)

[24-Bit 48.0 kHz] Varun Doctor (Telugu) [2021] (Sony Music) 2021

No permission to download
Varun Doctor (Telugu) [2021] (Sony Music)

igcsh12yclpla_600.jpg

Album / Movie : Varun Doctor
Music / Composer : Anirudh Ravichander
Year Released: 2021

Label: Sony Music
Language: Telugu
Ripper Note: Enjoy

Tracklist :

1 - Chittemma - Anirudh Ravichander, Jonita Gandhi & Srinivasa Moorthy
2 - Bandhame - Anirudh Ravichander, Adithya RK & Rajashri Sudhakar
3 - So Baby (Telugu) - Anirudh Ravichander, Saketh Komanduri, Ananthakrrishnan & Rajashri Sudhakar
4 - Soul of Doctor (Theme) - Anirudh Ravichander & Niranjana Ramanan


Spek :

01. Chittemma.flac.png

Quality Check log :
Code:
foobar2000 1.6.6 / Dynamic Range Meter 1.1.1
log date: 2021-10-09 23:00:30

--------------------------------------------------------------------------------
Analyzed: Anirudh Ravichander & Niranjana Ramanan / Varun Doctor  (1)
          Anirudh Ravichander, Adithya RK & Rajashri Sudhakar / Varun Doctor  (2)
          Anirudh Ravichander, Saketh Komanduri, Ananthakrrishnan & Rajashri Sudhakar / Varun Doctor  (3)
          Jonita Gandhi & Srinivasa Moorthy / Varun Doctor  (4)
--------------------------------------------------------------------------------

DR         Peak         RMS     Duration Track
--------------------------------------------------------------------------------
DR4        0.00 dB    -6.86 dB      1:04 04-Soul of Doctor (Theme)
DR7       -0.26 dB   -10.05 dB      4:17 02-Bandhame
DR5       -0.43 dB    -7.62 dB      4:13 03-So Baby  (Telugu)
DR6        0.00 dB    -8.23 dB      3:57 01-Chittemma
--------------------------------------------------------------------------------

Number of tracks:  4
Official DR value: DR6

Samplerate:        48000 Hz
Channels:          2
Bits per sample:   24
Bitrate:           1815 kbps
Codec:             FLAC
================================================================================