Vande Mataram [1997] (Sony BMG) [1st Edition]

[Audio CD] Vande Mataram [1997] (Sony BMG) [1st Edition] 1997

No permission to download
Vande Mataram [1997] (Sony BMG) [1st Edition]



Album / Movie : Vande Mataram
Music / Composer : A. R. Rahman
Year Released: 1997

Label: Sony BMG
Language: Tamil & Hindi
Ripper Note: ARR 🔥 Happy Independence Day Folks 🇮🇳

Tracklist :

1 - Maa Tujhe Salaam - A. R. Rahman
2 - Revival (Vande Mataram) - A. R. Rahman
3 - Gurus of Peace - Nusrat Fateh Ali Khan & A. R. Rahman
4 - Tauba Tauba - A. R. Rahman
5 - Only You - A. R. Rahman
6 - Missing (Vande Mataram) - A. R. Rahman
7 - Thai Mannai Vanakkum (Tamil) - A. R. Rahman



Spek :

07. Thai Mannai Vanakkum (Tamil).wav.png

Quality Check log :
Code:
foobar2000 1.6.6 / Dynamic Range Meter 1.1.1
log date: 2021-08-13 17:06:05

--------------------------------------------------------------------------------
Analyzed: A. R. Rahman / Vande Mataram (1-6)
          Nusrat Fateh Ali Khan & A. R. Rahman / Vande Mataram (7)
--------------------------------------------------------------------------------

DR         Peak         RMS     Duration Track
--------------------------------------------------------------------------------
DR10       0.00 dB   -12.48 dB      6:16 01-Maa Tujhe Salaam
DR14      -0.02 dB   -19.65 dB      7:40 02-Revival (Vande Mataram)
DR14       0.00 dB   -15.71 dB      6:07 04-Tauba Tauba
DR14      -0.04 dB   -16.35 dB      5:32 05-Only You
DR15       0.00 dB   -19.57 dB      5:10 06-Missing (Vande Mataram)
DR12      -0.03 dB   -14.22 dB      6:11 07-Thai Mannai Vanakkum (Tamil)
DR15       0.00 dB   -17.47 dB      5:38 03-Gurus of Peace
--------------------------------------------------------------------------------

Number of tracks:  7
Official DR value: DR13

Samplerate:        44100 Hz
Channels:          2
Bits per sample:   16
Bitrate:           1411 kbps
Codec:             PCM
================================================================================