Vaazhl (Tamil)

[24-Bit 48.0 kHz] Vaazhl (Tamil) 2021

No permission to download
Vaazhl (Tamil)

600x600bb.jpg

Album / Movie : Vaazhl
Music / Composer : Pradeep Kumar
Year Released: 2021

Label: Sony
Language: Tamil

Tracklist :

1 - Aahaa - Pradeep Kumar
2 - Mudhal Darisanam - Pradeep Kumar, Shahid Hameed & Bharath Sankar
3 - Feel Song - Pradeep Kumar & Deva
4 - Inba Visai - Pradeep Kumar & Lalita Vijaykumar
5 - Pudhu Vidha Anubavam - Pradeep Kumar & Kalyani Nair
6 - Semmaan Magalai - Pradeep Kumar
7 - Vaazha Vaa - Pradeep Kumar & Radar with a K
8 - Vaazhl Theme - Pradeep Kumar
9 - Naan - Pradeep Kumar



Spek :

04. Inba Visai.flac.png

Quality Check log :
Code:
foobar2000 1.6.6 / Dynamic Range Meter 1.1.1
log date: 2021-07-10 11:32:17

--------------------------------------------------------------------------------
Analyzed: Pradeep Kumar & Deva / Vaazhl (Original Motion Picture Soundtrack) (1)
          Pradeep Kumar & Kalyani Nair / Vaazhl (Original Motion Picture Soundtrack) (2)
          Pradeep Kumar & Lalita Vijaykumar / Vaazhl (Original Motion Picture Soundtrack) (3)
          Pradeep Kumar & Radar with a K / Vaazhl (Original Motion Picture Soundtrack) (4)
          Pradeep Kumar, Shahid Hameed & Bharath Sankar / Vaazhl (Original Motion Picture Soundtrack) (5)
          Pradeep Kumar / Vaazhl (Original Motion Picture Soundtrack) (6-9)
--------------------------------------------------------------------------------

DR         Peak         RMS     Duration Track
--------------------------------------------------------------------------------
DR11      -0.01 dB   -13.62 dB      3:01 03-Feel Song
DR10      -0.31 dB   -14.05 dB      4:12 05-Pudhu Vidha Anubavam
DR12      -0.01 dB   -14.01 dB      2:56 04-Inba Visai
DR11      -0.01 dB   -12.93 dB      5:20 07-Vaazha Vaa
DR12      -0.01 dB   -14.82 dB      2:52 02-Mudhal Darisanam
DR9       -0.16 dB   -11.96 dB      5:01 01-Aahaa
DR10      -0.01 dB   -14.55 dB      4:17 06-Semmaan Magalai
DR12      -0.01 dB   -14.78 dB      4:55 08-Vaazhl Theme
DR11      -0.01 dB   -13.81 dB      5:59 09-Naan
--------------------------------------------------------------------------------

Number of tracks:  9
Official DR value: DR11

Samplerate:        48000 Hz
Channels:          2
Bits per sample:   24
Bitrate:           1537 kbps
Codec:             FLAC
================================================================================