Udanpirappe (Tamil) [2021] (Sony Music)

[24-Bit 48.0 kHz] Udanpirappe (Tamil) [2021] (Sony Music) 2021

No permission to download
Udanpirappe (Tamil) [2021] (Sony Music)

x5sgmnpbmg6qc_600.jpg

Album / Movie : Udanpirappe
Music / Composer : D. Imman
Year Released: 2021

Label: Sony Music.
Language: Tamil
Ripper Note: Enjoy

Tracklist :

1 - Anney Yaaranney - Shreya Ghoshal & Yugabharathi
2 - Othapana Kaatteri - Sid Sriram & Yugabharathi
3 - Deivam Neethaaney - Pavithra Chari & Yugabharathi
4 - Karambakudi Kanaga - Nithyasree Mahadevan, Jeyamoorthi & Snehan
5 - Yenge Yen Ponmaalai - Arya Dhayal & Yugabharathi
6 - Anney Yaaranney (Reprise) - Shreya Ghoshal & Yugabharathi
7 - Anney Yaaranney (Karaoke) - D. Imman
8 - Othapana Kaatteri (Karaoke) - D. Imman
9 - Deivam Neethaaney (Karaoke) - D. Imman


Spek :

02. Othapana Kaatteri.flac.png

Quality Check log :
Code:
foobar2000 1.6.6 / Dynamic Range Meter 1.1.1
log date: 2021-10-13 18:22:39

--------------------------------------------------------------------------------
Analyzed: Arya Dhayal & Yugabharathi / Udanpirappe  (1)
          D. Imman / Udanpirappe  (2-4)
          Nithyasree Mahadevan, Jeyamoorthi & Snehan / Udanpirappe  (5)
          Pavithra Chari & Yugabharathi / Udanpirappe  (6)
          Shreya Ghoshal & Yugabharathi / Udanpirappe  (7-8)
          Sid Sriram & Yugabharathi / Udanpirappe  (9)
--------------------------------------------------------------------------------

DR         Peak         RMS     Duration Track
--------------------------------------------------------------------------------
DR7       -0.13 dB    -9.28 dB      4:04 05-Yenge Yen Ponmaalai
DR6       -0.13 dB    -9.59 dB      3:27 07-Anney Yaaranney  (Karaoke)
DR7       -0.13 dB    -9.66 dB      3:35 08-Othapana Kaatteri  (Karaoke)
DR6       -0.13 dB    -9.87 dB      4:24 09-Deivam Neethaaney  (Karaoke)
DR7       -0.13 dB    -8.80 dB      4:16 04-Karambakudi Kanaga
DR6       -0.13 dB    -8.34 dB      4:24 03-Deivam Neethaaney
DR6       -0.13 dB    -8.53 dB      3:27 01-Anney Yaaranney
DR7       -0.13 dB    -8.95 dB      3:49 06-Anney Yaaranney  (Reprise)
DR6       -0.13 dB    -8.57 dB      3:35 02-Othapana Kaatteri
--------------------------------------------------------------------------------

Number of tracks:  9
Official DR value: DR6

Samplerate:        48000 Hz
Channels:          2
Bits per sample:   24
Bitrate:           1845 kbps
Codec:             FLAC
================================================================================