Tughlaq Durbar (Tamil) [2021] (Think Music)

[24-Bit 48.0 kHz] Tughlaq Durbar (Tamil) [2021] (Think Music) 2021

No permission to download
Tughlaq Durbar (Tamil) [2021] (Think Music)

600x600bb.jpg

Album / Movie : Tughlaq Durbar
Music / Composer : Govind Vasantha
Year Released: 2021

Label: Think Music
Language: Tamil
Ripper Note: Govind Vasantha 🔥

Tracklist :

1 - Arasiyal Kedi - SidVoc, Bhuvana Ananth & Govind Vasantha
2 - Dravida Kone - Harihara Sudhan & Govind Vasantha
3 - Kaami Kaami - Swasthika Swaminathan & Govind Vasantha
4 - Annathe Sethi - Arivu & Govind Vasantha



Spek :

03. Kaami Kaami.flac.png

Quality Check log :
Code:
foobar2000 1.6.6 / Dynamic Range Meter 1.1.1
log date: 2021-08-20 15:16:20

--------------------------------------------------------------------------------
Analyzed: Arivu & Govind Vasantha / Tughlaq Durbar (1)
          Harihara Sudhan & Govind Vasantha / Tughlaq Durbar (2)
          SidVoc, Bhuvana Ananth & Govind Vasantha / Tughlaq Durbar (3)
          Swasthika Swaminathan & Govind Vasantha / Tughlaq Durbar (4)
--------------------------------------------------------------------------------

DR         Peak         RMS     Duration Track
--------------------------------------------------------------------------------
DR9       -0.15 dB   -11.40 dB      4:19 04-Annathe Sethi
DR10      -0.15 dB   -11.41 dB      3:17 02-Dravida Kone
DR9       -0.25 dB   -11.82 dB      3:18 01-Arasiyal Kedi
DR7        0.00 dB    -9.53 dB      4:18 03-Kaami Kaami
--------------------------------------------------------------------------------

Number of tracks:  4
Official DR value: DR9

Samplerate:        48000 Hz
Channels:          2
Bits per sample:   24
Bitrate:           1707 kbps
Codec:             FLAC
================================================================================