Theal (Tamil) [2021] (Think Music)

[24-Bit 48.0 kHz] Theal (Tamil) [2021] (Think Music) 2021

No permission to download
Theal (Tamil) [2021] (Think Music)

lo6p2yha26c9a_600.jpg

Album / Movie : Theal
Music / Composer : C. Sathya
Year Released: 2021

Label: Think Music.
Language: Tamil
Ripper Note: Enjoy the Quality !

Tracklist :

1 - Enna Petha Devadhaiye - C. Sathya
2 - Vaatura Theetura - C. Sathya, V.M. Mahalingam & Meenakshi Ilayaraja
3 - Madhavi Ponmayilaaga - C. Sathya & Priya Hemesh
4 - Thealu Thealu - C. Sathya, Harikumar Atul, Hyde Karty & Raghav Jock


Spek :

02. Vaatura Theetura.flac.png

Dynamic Range log :
Code:
foobar2000 1.6.6 / Dynamic Range Meter 1.1.1
log date: 2021-11-18 12:43:35

--------------------------------------------------------------------------------
Analyzed: C. Sathya & Priya Hemesh / Theal (1)
          C. Sathya, Harikumar Atul, Hyde Karty & Raghav Jock / Theal (2)
          C. Sathya, V.M. Mahalingam & Meenakshi Ilayaraja / Theal (3)
          C. Sathya / Theal (4)
--------------------------------------------------------------------------------

DR         Peak         RMS     Duration Track
--------------------------------------------------------------------------------
DR6       -0.50 dB    -7.63 dB      3:23 03-Madhavi Ponmayilaaga
DR10      -1.00 dB   -11.99 dB      2:52 04-Thealu Thealu
DR5       -0.30 dB    -8.07 dB      3:58 02-Vaatura Theetura
DR6       -0.30 dB    -7.88 dB      4:15 01-Enna Petha Devadhaiye
--------------------------------------------------------------------------------

Number of tracks:  4
Official DR value: DR7

Samplerate:        48000 Hz
Channels:          2
Bits per sample:   24
Bitrate:           1724 kbps
Codec:             FLAC
================================================================================
Author
Axel
Downloads
4
Views
77
First release
Last update
Rating
0.00 star(s) 0 ratings