The Successful Loosers (Hindi)

[24-Bit 96.0 kHz] The Successful Loosers (Hindi) 2021

No permission to download
The Successful Loosers (Original Motion Picture Soundtrack)

600x600bb.jpg

Album / Movie : The Successful Loosers
Music / Composer : Sanjeev Chaturvedi, Rahul Jain, Aaditya Kumar & Kaptaans
Year Released: 2021

Label: Sony Music
Language: Hindi

Tracklist :

1 - Udne Do - Sanjeev Chaturvedi, Rahul Jain & Sinewave
2 - Fakeer Bandeya - Aaditya Kumar & Gajendra Verma
3 - Tu Lagdi Hot - Kaptaans, Sanam Puri & Mista Baaz
4 - Jugaad Ki Zindagi - Aaditya Kumar & Parry G
5 - Parindey - Aaditya Kumar & Mohammed Irfan



Spek :

01. Udne Do.flac.png

Quality Check log :
Code:
foobar2000 1.6.2 / Dynamic Range Meter 1.1.1
log date: 2021-06-27 23:06:40

--------------------------------------------------------------------------------
Analyzed: Aaditya Kumar & Gajendra Verma / The Successful Loosers (Original Motion Picture Soundtrack) (1)
          Aaditya Kumar & Mohammed Irfan / The Successful Loosers (Original Motion Picture Soundtrack) (2)
          Aaditya Kumar & Parry G / The Successful Loosers (Original Motion Picture Soundtrack) (3)
          Kaptaans, Sanam Puri & Mista Baaz / The Successful Loosers (Original Motion Picture Soundtrack) (4)
          Sanjeev Chaturvedi, Rahul Jain & Sinewave / The Successful Loosers (Original Motion Picture Soundtrack) (5)
--------------------------------------------------------------------------------

DR         Peak         RMS     Duration Track
--------------------------------------------------------------------------------
DR9       -1.09 dB   -12.29 dB      3:38 02-Fakeer Bandeya
DR6       -0.26 dB    -7.72 dB      4:51 05-Parindey
DR8       -1.95 dB   -11.04 dB      2:26 04-Jugaad Ki Zindagi
DR4       -0.50 dB    -6.79 dB      3:02 03-Tu Lagdi Hot
DR12       0.00 dB   -15.31 dB      3:37 01-Udne Do
--------------------------------------------------------------------------------

Number of tracks:  5
Official DR value: DR8

Samplerate:        96000 Hz
Channels:          2
Bits per sample:   24
Bitrate:           2645 kbps
Codec:             FLAC
================================================================================