Teeja Punjab (Hindi) [2021] (Sony Music)

[24-Bit 96.0 kHz] [Hi-Res] Teeja Punjab (Hindi) [2021] (Sony Music) 2021

No permission to download
Teeja Punjab (Hindi) [2021] (Sony Music)

p5el3du5jqw9a_600.jpg

Album / Movie : Teeja Punjab
Music / Composer : Shah An Shah, Jashan Inder, Prabh Bains, Black Virus, Nimrat Khaira & Amberdeep Singh
Year Released: 2021

Label: Sony Music.
Language: Hindi
Ripper Note: Enjoy the Quality !

Tracklist :

1 - Gallan Chaandi Diyan - Nimrat Khaira & Shah An Shah
2 - Naina Da Joda - Ammy Virk, Shah An Shah & Bunty Bains
3 - Hakam - Ranjit Bawa, Shah An Shah & Bunty Brains
4 - Sifar - Amar Sehmbi & Jashan Inder
5 - Rug Amber Da - Nimrat Khaira & Jashan Inder
6 - Akhaada - Jaswinder Brar & Prabh Bains
7 - Din - Kanwar Grewal & Shah An Shah


Spek :

01. Gallan Chaandi Diyan.flac.png

Dynamic Range log :
Code:
foobar2000 1.6.6 / Dynamic Range Meter 1.1.1
log date: 2021-12-06 21:52:44

--------------------------------------------------------------------------------
Analyzed: Amar Sehmbi & Jashan Inder / Teeja Punjab  (1)
          Ammy Virk, Shah An Shah & Bunty Bains / Teeja Punjab  (2)
          Jaswinder Brar & Prabh Bains / Teeja Punjab  (3)
          Kanwar Grewal & Shah An Shah / Teeja Punjab  (4)
          Nimrat Khaira & Jashan Inder / Teeja Punjab  (5)
          Nimrat Khaira & Shah An Shah / Teeja Punjab  (6)
          Ranjit Bawa, Shah An Shah & Bunty Brains / Teeja Punjab  (7)
--------------------------------------------------------------------------------

DR         Peak         RMS     Duration Track
--------------------------------------------------------------------------------
DR6        0.00 dB    -7.87 dB      4:00 04-Sifar
DR4        0.00 dB    -6.62 dB      2:39 02-Naina Da Joda
DR5        0.00 dB    -6.58 dB      3:19 06-Akhaada
DR5        0.00 dB    -7.07 dB      5:36 07-Din
DR8        0.00 dB    -9.51 dB      3:58 05-Rug Amber Da
DR5        0.00 dB    -7.01 dB      2:41 01-Gallan Chaandi Diyan
DR8        0.00 dB    -9.41 dB      2:59 03-Hakam
--------------------------------------------------------------------------------

Number of tracks:  7
Official DR value: DR6

Samplerate:        96000 Hz
Channels:          2
Bits per sample:   24
Bitrate:           2938 kbps
Codec:             FLAC
================================================================================