Sivakumarin Sabadham (Tamil) [2021] (Think Music)

[24-Bit 48.0 kHz] Sivakumarin Sabadham (Tamil) [2021] (Think Music) 2021

No permission to download
Sivakumarin Sabadham (Tamil) [2021] (Think Music)

r1cq5jw71mypa_600.jpg

Album / Movie : Sivakumarin Sabadham
Music / Composer : Hiphop Tamizha
Year Released: 2021

Label: Think Music
Language: Tamil
Ripper Note: Enjoy

Tracklist :

1 - Sivakumar Pondati - Hiphop Tamizha & Gaana Michael
2 - Bahubalikku Oru Kattappa - Hiphop Tamizha
3 - Neruppa Irupaan - Hiphop Tamizha & Padmalatha
4 - Thillalangadi Lady - Hiphop Tamizha
5 - Middle Class - Hiphop Tamizha & Bamba Bakya
6 - Nesamae - Hiphop Tamizha, Anthony Daasan & Sudharshan Ashok


Spek :

03. Neruppa Irupaan.flac.png

Quality Check log :
Code:
foobar2000 1.6.6 / Dynamic Range Meter 1.1.1
log date: 2021-09-30 09:24:25

--------------------------------------------------------------------------------
Analyzed: Hiphop Tamizha & Bamba Bakya / Sivakumarin Sabadham (1)
          Hiphop Tamizha & Gaana Michael / Sivakumarin Sabadham (2)
          Hiphop Tamizha & Padmalatha / Sivakumarin Sabadham (3)
          Hiphop Tamizha, Anthony Daasan & Sudharshan Ashok / Sivakumarin Sabadham (4)
          Hiphop Tamizha / Sivakumarin Sabadham (5-6)
--------------------------------------------------------------------------------

DR         Peak         RMS     Duration Track
--------------------------------------------------------------------------------
DR5       -0.20 dB    -7.21 dB      3:04 05-Middle Class
DR5       -0.20 dB    -6.61 dB      3:16 01-Sivakumar Pondati
DR6       -0.20 dB    -7.64 dB      2:56 03-Neruppa Irupaan
DR7       -0.20 dB   -10.78 dB      3:20 06-Nesamae
DR7       -0.20 dB    -9.01 dB      3:22 02-Bahubalikku Oru Kattappa
DR6       -0.20 dB    -7.40 dB      3:21 04-Thillalangadi Lady
--------------------------------------------------------------------------------

Number of tracks:  6
Official DR value: DR6

Samplerate:        48000 Hz
Channels:          2
Bits per sample:   24
Bitrate:           1836 kbps
Codec:             FLAC
================================================================================