Sara'S (Malayalam) [2021]

[24-Bit 48.0 kHz] Sara'S (Malayalam) [2021] 2021

No permission to download
Sara'S (Malayalam) [2021]

600x600bb.jpg

Album / Movie : Sara'S
Music / Composer : Shaan Rahman
Year Released: 2021

Label: Satyam Audios
Language: Malayalam

Tracklist :

1 - Mele Vinpadavukal - Sooraj Santhosh
2 - Varavayi Nee - Divya Vineeth & Vineeth Srinivasan
3 - Kadha Parayanu - Shaan Rahman
4 - Penninte - Shaan Rahman
5 - Nenjame Nenajame - Vineeth Sreenivasan & Gowry Lekshmi



Spek :

01 - Mele Vinpadavukal.flac.png

Quality Check log :
Code:
foobar2000 1.6.6 / Dynamic Range Meter 1.1.1
log date: 2021-07-16 21:50:33

--------------------------------------------------------------------------------
Analyzed: Divya Vineeth & Vineeth Srinivasan / Sara'S (1)
          Shaan Rahman / Sara'S (2-3)
          Sooraj Santhosh / Sara'S (4)
          Vineeth Sreenivasan & Gowry Lekshmi / Sara'S (5)
--------------------------------------------------------------------------------

DR         Peak         RMS     Duration Track
--------------------------------------------------------------------------------
DR7       -1.00 dB   -10.11 dB      3:18 02-Varavayi Nee
DR5       -1.07 dB    -9.36 dB      1:56 03-Kadha Parayanu
DR6       -1.00 dB   -10.19 dB      2:01 04-Penninte
DR7       -1.20 dB    -9.31 dB      2:44 01-Mele Vinpadavukal
DR6       -1.00 dB    -9.79 dB      3:55 05-Nenjame Nenajame
--------------------------------------------------------------------------------

Number of tracks:  5
Official DR value: DR6

Samplerate:        48000 Hz
Channels:          2
Bits per sample:   24
Bitrate:           1736 kbps
Codec:             FLAC
================================================================================