Roja - The Rose (Hindi) [1992] (Sony Music) [Latest Edition]

[Audio CD] Roja - The Rose (Hindi) [1992] (Sony Music) [Latest Edition] 1992

No permission to download
Roja - The Rose (Hindi) [1992] (Sony Music) [Latest Edition]



Album / Movie : Roja - The Rose Hindi
Music / Composer : A. R. Rahman
Year Released: 1992

Label: Sony Music.
Language: Hindi
Ripper Note: Latest Re-print Edition with Instrumentals

Tracklist :

1 - Choti Si Aasha - Minmini
2 - Rukmani Rukmani - Baba Seghal & Shweta
3 - Roja - S. P. Balasubramanium & Chitra
4 - Yeh Haseen Vadiyan Yeh Khula Aasman - S. P. Balasubramanium & Chitra
5 - Roja - Hariharan
6 - Choti Si Aasha - Minimi
7 - Bharat Humko Jaan Se Pyara Hai - Hariharan
8 - Choti Si Aasha - Instrumental
9 - Rukmani Rukmani - Instrumental
10 - Roja - Instrumental
11 - Yeh Haseen Vadiyan Yeh Khula Aasman - Instrumental
12 - Bharat Humko Jaan Se Pyara Hai - Instrumental




Spek :

01. Choti Si Aasha.wav.png

Quality Check log :
Code:
foobar2000 1.6.6 / Dynamic Range Meter 1.1.1
log date: 2021-09-06 14:36:52

--------------------------------------------------------------------------------
Analyzed: Baba Seghal & Shweta / Roja - The Rose Hindi (1)
          Hariharan / Roja - The Rose Hindi (2-3)
          Instrumental  / Roja - The Rose Hindi (4)
          Instrumental / Roja - The Rose Hindi (5-8)
          Minimi / Roja - The Rose Hindi (9)
          Minmini / Roja - The Rose Hindi (10)
          S. P. Balasubramanium & Chitra / Roja - The Rose Hindi (11-12)
--------------------------------------------------------------------------------

DR         Peak         RMS     Duration Track
--------------------------------------------------------------------------------
DR13       0.00 dB   -15.68 dB      6:01 02-Rukmani Rukmani
DR13       0.00 dB   -14.46 dB      5:04 05-Roja
DR11       0.00 dB   -15.83 dB      3:06 07-Bharat Humko Jaan Se Pyara Hai
DR13       0.00 dB   -14.34 dB      5:02 10-Roja
DR12       0.00 dB   -14.70 dB      4:57 08-Choti Si Aasha
DR14       0.00 dB   -16.24 dB      5:44 09-Rukmani Rukmani
DR10       0.00 dB   -12.41 dB      5:17 11-Yeh Haseen Vadiyan Yeh Khula Aasman
DR11       0.00 dB   -14.74 dB      2:59 12-Bharat Humko Jaan Se Pyara Hai
DR14       0.00 dB   -16.13 dB      1:05 06-Choti Si Aasha
DR13       0.00 dB   -15.60 dB      4:54 01-Choti Si Aasha
DR12       0.00 dB   -14.25 dB      5:04 03-Roja
DR10       0.00 dB   -13.11 dB      5:16 04-Yeh Haseen Vadiyan Yeh Khula Aasman
--------------------------------------------------------------------------------

Number of tracks:  12
Official DR value: DR12

Samplerate:        44100 Hz
Channels:          2
Bits per sample:   16
Bitrate:           1411 kbps
Codec:             PCM
================================================================================