Pushpaka Vimanam (Telugu) [2021] (Adtya Music)

[16-Bit 44.0 kHz] Pushpaka Vimanam (Telugu) [2021] (Adtya Music) 2021

No permission to download
Pushpaka Vimanam (Telugu) [2021] (Adtya Music)

v6av951evlzib_600.jpg

Album / Movie : Pushpaka Vimanam
Music / Composer : Ram Miriyala, Sidharth Sadasivuni, Mark K Robin, Amit N Dasani
Year Released: 2021

Label: Adtya Music.
Language: Telugu
Ripper Note: Enjoy the Quality !

Tracklist :

1 - Silakaa - Ram Miriyala
2 - Kalyanam - Sid Sriram
3 - Aaha - Kailash Kher
4 - Swamy Ra Ra (Krishna Shabdam) - Chinmayi Sripada
5 - Malli Rava - Hari Haran
6 - Chori Chori Dekho Re - Damini Bhatla


Spek :

01. Silakaa.flac.png

Dynamic Range log :
Code:
foobar2000 1.6.6 / Dynamic Range Meter 1.1.1
log date: 2021-11-17 21:18:45

--------------------------------------------------------------------------------
Analyzed: Chinmayi Sripada / Pushpaka Vimanam (1)
          Damini Bhatla / Pushpaka Vimanam (2)
          Hari Haran / Pushpaka Vimanam (3)
          Kailash Kher / Pushpaka Vimanam (4)
          Ram Miriyala / Pushpaka Vimanam (5)
          Sid Sriram / Pushpaka Vimanam (6)
--------------------------------------------------------------------------------

DR         Peak         RMS     Duration Track
--------------------------------------------------------------------------------
DR7       -0.99 dB    -9.96 dB      3:14 04-Swamy Ra Ra (Krishna Shabdam)
DR11      -0.91 dB   -13.52 dB      1:50 06-Chori Chori Dekho Re
DR6       -1.00 dB    -9.76 dB      2:40 05-Malli Rava
DR9       -0.10 dB   -11.81 dB      3:29 03-Aaha
DR13       0.00 dB   -14.23 dB      4:06 01-Silakaa
DR9       -0.37 dB   -11.26 dB      3:02 02-Kalyanam
--------------------------------------------------------------------------------

Number of tracks:  6
Official DR value: DR9

Samplerate:        44100 Hz
Channels:          2
Bits per sample:   16
Bitrate:           889 kbps
Codec:             FLAC
================================================================================
  • Like
Reactions: music_ss
Author
Axel
Downloads
1
Views
60
First release
Last update
Rating
0.00 star(s) 0 ratings