Project Agni [Original Score] (From "Navarasa") (Tamil) [2021] (Think Music)

[16-Bit 44.0 kHz] Project Agni [Original Score] (From "Navarasa") (Tamil) [2021] (Think Music) 2021

No permission to download
Project Agni [Original Score] (From "Navarasa") (Tamil) [2021] (Think Music)

aur4ycttxtxgb_600.jpg

Album / Movie : Project Agni [Original Score]
Music / Composer : Ron Ethan Yohann
Year Released: 2021

Label: Think Music
Language: Tamil OST
Ripper Note: Enjoy

Tracklist :

1 - The Call - Ron Ethan Yohann
2 - The Discovery - Ron Ethan Yohann
3 - The Invention - Ron Ethan Yohann
4 - The God Molecule - Ron Ethan Yohann
5 - The Experiment - Ron Ethan Yohann
6 - The Confession - Ron Ethan Yohann
7 - The Revelation - Ron Ethan Yohann


Spek :

01. The Call.flac.png

Quality Check log :
Code:
foobar2000 1.6.6 / Dynamic Range Meter 1.1.1
log date: 2021-09-10 11:19:03

--------------------------------------------------------------------------------
Analyzed: Ron Ethan Yohann / Project Agni [Original Score] (From "Navarasa")
--------------------------------------------------------------------------------

DR         Peak         RMS     Duration Track
--------------------------------------------------------------------------------
DR11      -1.00 dB   -17.71 dB      4:07 01-The Call
DR12      -0.10 dB   -17.27 dB      4:03 02-The Discovery
DR11      -4.21 dB   -20.64 dB      1:02 03-The Invention
DR11       0.00 dB   -15.61 dB      3:26 04-The God Molecule
DR10       0.00 dB   -16.36 dB      2:57 05-The Experiment
DR12      -0.08 dB   -16.73 dB      4:25 06-The Confession
DR8       -0.04 dB   -11.53 dB      1:35 07-The Revelation
--------------------------------------------------------------------------------

Number of tracks:  7
Official DR value: DR11

Samplerate:        44100 Hz
Channels:          2
Bits per sample:   16
Bitrate:           711 kbps
Codec:             FLAC
================================================================================