Netrikann (Tamil) [2021] (Sony Music)

[24-Bit 48.0 kHz] Netrikann (Tamil) [2021] (Sony Music) 2021

No permission to download
Netrikann (Tamil) [2021] (Sony Music)

ypp49867nnqxc_600.jpg

Album / Movie : Netrikann
Music / Composer : Girishh
Year Released: 2021

Label: Sony Music
Language: Tamil

Tracklist :

1 - Idhuvum Kadandhu Pogum (The Healing Song) - Girishh & Sid Sriram
2 - Netrikann Title Track - Girishh & Poorvi Koutish
3 - Po Nilladhe - Girishh
4 - Idhuvum Kadandhu Pogum (Reprise) - Girishh, Bombay Jayashri Ramnath & Amrit Ramnath


Spek :

03. Po Nilladhe.flac.png

Quality Check log :
Code:
foobar2000 1.6.6 / Dynamic Range Meter 1.1.1
log date: 2021-08-13 16:33:30

--------------------------------------------------------------------------------
Analyzed: Girishh & Poorvi Koutish / Netrikann  (1)
          Girishh & Sid Sriram / Netrikann  (2)
          Girishh, Bombay Jayashri Ramnath & Amrit Ramnath / Netrikann  (3)
          Girishh / Netrikann  (4)
--------------------------------------------------------------------------------

DR         Peak         RMS     Duration Track
--------------------------------------------------------------------------------
DR10      -1.00 dB   -13.62 dB      3:36 02-Netrikann Title Track
DR10      -1.00 dB   -12.35 dB      5:13 01-Idhuvum Kadandhu Pogum (The Healing Song)
DR9       -1.00 dB   -12.79 dB      3:09 04-Idhuvum Kadandhu Pogum  (Reprise)
DR9       -1.00 dB   -12.76 dB      3:03 03-Po Nilladhe
--------------------------------------------------------------------------------

Number of tracks:  4
Official DR value: DR10

Samplerate:        48000 Hz
Channels:          2
Bits per sample:   24
Bitrate:           1708 kbps
Codec:             FLAC
================================================================================