Narappa (Telugu) [2021] (SP Music)

[24-Bit 48.0 kHz] Narappa (Telugu) [2021] (SP Music) 2021

No permission to download
Narappa (Telugu) [2021] (SP Music)

haong0rhzyq2b_600.jpg

Album / Movie : Narappa
Music / Composer : Mani Sharma
Year Released: 2021

Label: SP Music
Language: Telugu

Tracklist :

1 - Raa Narakara - Srikrishna, Revanth & Saicharan
2 - Thallipegu Chudu Ela - Saindhavi & Mani Sharma
3 - Oo...Narappa - Dhanunjay, Seepana Varam & Mani Sharma
4 - Chalaaki Chinnammi - Aditya Iyengar, Nutana Mohan & Mani Sharma
5 - Ooru Natta Naadivaaye - Anurag Kulkarni & Mani Sharma



Spek :

02. Thallipegu Chudu Ela.flac.png

Quality Check log :
Code:
foobar2000 1.6.6 / Dynamic Range Meter 1.1.1
log date: 2021-07-31 14:22:13

--------------------------------------------------------------------------------
Analyzed: Aditya Iyengar, Nutana Mohan & Mani Sharma / Narappa (1)
          Anurag Kulkarni & Mani Sharma / Narappa (2)
          Dhanunjay, Seepana Varam & Mani Sharma / Narappa (3)
          Saindhavi & Mani Sharma / Narappa (4)
          Srikrishna, Revanth & Saicharan / Narappa (5)
--------------------------------------------------------------------------------

DR         Peak         RMS     Duration Track
--------------------------------------------------------------------------------
DR4       -2.00 dB    -7.41 dB      3:29 04-Chalaaki Chinnammi
DR11       0.00 dB   -13.90 dB      1:43 05-Ooru Natta Naadivaaye
DR5       -0.40 dB    -7.09 dB      3:41 03-Oo...Narappa
DR7       -1.00 dB    -9.05 dB      5:54 02-Thallipegu Chudu Ela
DR4       -0.20 dB    -6.13 dB      4:04 01-Raa Narakara
--------------------------------------------------------------------------------

Number of tracks:  5
Official DR value: DR6

Samplerate:        48000 Hz
Channels:          2
Bits per sample:   24
Bitrate:           1891 kbps
Codec:             FLAC
================================================================================