Most Eligible Bachelor (Telugu) [2021] (Aditya Music)

[16-Bit 44.0 kHz] Most Eligible Bachelor (Telugu) [2021] (Aditya Music) 2021

No permission to download
Most Eligible Bachelor (Telugu) [2021] (Aditya Music)

usl914soslltc_600.jpg

Album / Movie : Most Eligible Bachelor
Music / Composer : Gopi Sundar
Year Released: 2021

Label: Aditya Music.
Language: Telugu
Ripper Note: Enjoy 🔊

Tracklist :

1 - Manasa Manasa - Sid Sriram
2 - Guche Gulabi - Armaan Malik
3 - Zindagi - Haniya Nafisa & Gopi Sundar
4 - Leharaayi - Sid Sriram
5 - Chitti Adugu - Zia Ul Haq


Spek :

04. Leharaayi.flac.png

Quality Check log :
Code:
foobar2000 1.6.6 / Dynamic Range Meter 1.1.1
log date: 2021-10-14 08:34:37

--------------------------------------------------------------------------------
Analyzed: Armaan Malik / Most Eligible Bachelor (1)
          Haniya Nafisa & Gopi Sundar / Most Eligible Bachelor (2)
          Sid Sriram / Most Eligible Bachelor (3-4)
          Zia Ul Haq / Most Eligible Bachelor (5)
--------------------------------------------------------------------------------

DR         Peak         RMS     Duration Track
--------------------------------------------------------------------------------
DR7        0.00 dB    -9.27 dB      4:42 02-Guche Gulabi
DR7       -0.50 dB   -10.33 dB      4:06 03-Zindagi
DR6       -0.50 dB    -8.82 dB      4:13 01-Manasa Manasa
DR6       -1.00 dB    -8.90 dB      4:05 04-Leharaayi
DR5       -1.00 dB    -8.47 dB      4:16 05-Chitti Adugu
--------------------------------------------------------------------------------

Number of tracks:  5
Official DR value: DR6

Samplerate:        44100 Hz
Channels:          2
Bits per sample:   16
Bitrate:           999 kbps
Codec:             FLAC
================================================================================