Mimi (Hindi) [2021]

[24-Bit 48.0 kHz] Mimi (Hindi) [2021] 2021

No permission to download
Mimi (Hindi)

600x600bb.jpg

Album / Movie : Mimi
Music / Composer : A. R. Rahman
Year Released: 2021

Label: Sony
Language: Hindi

Tracklist :

1 - Param Sundari - A.R. Rahman & Shreya Ghoshal
2 - Rihaayi De - A.R. Rahman
3 - Yaane Yaane - A.R. Rahman & Rakshita Suresh
4 - Hututu - A.R. Rahman & Shashaa Tirupati
5 - Phuljhadiyon - A.R. Rahman & Shilpa Rao
6 - Choti Si Chiraiya - A.R. Rahman & Kailash Kher
7 - Rock A Bye Baby - A.R. Rahman, Julia Gartha & Khatija Rahman



Spek :

02. Rihaayi De.flac.png

Quality Check log :
Code:
foobar2000 1.6.6 / Dynamic Range Meter 1.1.1
log date: 2021-07-16 22:19:01

--------------------------------------------------------------------------------
Analyzed: A.R. Rahman & Kailash Kher / Mimi [HR] (1)
          A.R. Rahman & Rakshita Suresh / Mimi [HR] (2)
          A.R. Rahman & Shashaa Tirupati / Mimi [HR] (3)
          A.R. Rahman & Shilpa Rao / Mimi [HR] (4)
          A.R. Rahman & Shreya Ghoshal / Mimi [HR] (5)
          A.R. Rahman, Julia Gartha & Khatija Rahman / Mimi [HR] (6)
          A.R. Rahman / Mimi [HR] (7)
--------------------------------------------------------------------------------

DR         Peak         RMS     Duration Track
--------------------------------------------------------------------------------
DR10      -0.11 dB   -10.95 dB      4:35 06-Choti Si Chiraiya
DR9       -0.09 dB   -10.98 dB      3:25 03-Yaane Yaane
DR8       -0.11 dB   -11.37 dB      3:53 04-Hututu
DR6       -0.11 dB    -9.07 dB      2:59 05-Phuljhadiyon
DR8       -0.11 dB    -9.46 dB      3:20 01-Param Sundari
DR9       -0.11 dB   -10.50 dB      3:47 07-Rock A Bye Baby
DR8       -0.11 dB   -11.20 dB      6:05 02-Rihaayi De
--------------------------------------------------------------------------------

Number of tracks:  7
Official DR value: DR8

Samplerate:        48000 Hz
Channels:          2
Bits per sample:   24
Bitrate:           1657 kbps
Codec:             FLAC
================================================================================