Malik (Malayalam) [2021] (Anto Joseph)

[24-Bit 48.0 kHz] Malik (Malayalam) [2021] (Anto Joseph) 2021

No permission to download
Malik (Malayalam) [2021] (Anto Joseph)

600x600bb.jpg

Album / Movie : Malik
Music / Composer : Sushin Shyam
Year Released: 2021

Label: Anto Joseph
Language: Malayalam

Tracklist :

1 - Theerame - Sushin Shyam, K. S. Chithra & Sooraj Santhosh
2 - Aararum Kanathe - Sushin Shyam & Shahabaz Khan
3 - Raheemun Aleemun - Sushin Shyam, Hida Chokkad & Imam Majboor




Spek :

01. Theerame.flac.png

Quality Check log :
Code:
foobar2000 1.6.6 / Dynamic Range Meter 1.1.1
log date: 2021-07-20 22:11:57

--------------------------------------------------------------------------------
Analyzed: Sushin Shyam & Shahabaz Khan / Malik (1)
          Sushin Shyam, Hida Chokkad & Imam Majboor / Malik (2)
          Sushin Shyam, K. S. Chithra & Sooraj Santhosh / Malik (3)
--------------------------------------------------------------------------------

DR         Peak         RMS     Duration Track
--------------------------------------------------------------------------------
DR9       -1.01 dB   -11.77 dB      4:17 02-Aararum Kanathe
DR7        0.00 dB   -12.37 dB      2:09 03-Raheemun Aleemun
DR9       -1.10 dB   -13.57 dB      4:23 01-Theerame
--------------------------------------------------------------------------------

Number of tracks:  3
Official DR value: DR8

Samplerate:        48000 Hz
Channels:          2
Bits per sample:   24
Bitrate:           1562 kbps
Codec:             FLAC
================================================================================