Mahasamudram (Telugu) [2021] (Sony Music)

[24-Bit 96.0 kHz] Mahasamudram (Telugu) [2021] (Sony Music) 2021

No permission to download
Mahasamudram (Telugu) [2021] (Sony Music)

p5hoyja5lzric_600.jpg

Album / Movie : Mahasamudram
Music / Composer : Chaitan Bharadwaj
Year Released: 2021

Label: Sony Music.
Language: Telugu
Ripper Note: Hey Rambha Rambha 💃💃

Tracklist :

1 - Hey Rambha Rambha - Chaitan Bharadwaj
2 - Cheppake Cheppake - Deepthi Parthasarathy & Chaitanya Prasad
3 - Hey Thikamaka Modhale - Haricharan & Nutana Mohan
4 - Jagadale Raani - Hemachandra & Bhaskarabhatla
5 - Manasu Marige Mounamgane - Gowtham Bharadwaj & Chaitanya Prasad


Spek :

02. Cheppake Cheppake.flac.png

Quality Check log :
Code:
foobar2000 1.6.6 / Dynamic Range Meter 1.1.1
log date: 2021-10-14 08:06:55

--------------------------------------------------------------------------------
Analyzed: Chaitan Bharadwaj / Mahasamudram  (1)
          Deepthi Parthasarathy & Chaitanya Prasad / Mahasamudram  (2)
          Gowtham Bharadwaj & Chaitanya Prasad / Mahasamudram  (3)
          Haricharan & Nutana Mohan / Mahasamudram  (4)
          Hemachandra & Bhaskarabhatla / Mahasamudram  (5)
--------------------------------------------------------------------------------

DR         Peak         RMS     Duration Track
--------------------------------------------------------------------------------
DR8        0.00 dB    -9.49 dB      3:33 01-Hey Rambha Rambha
DR8        0.00 dB   -10.11 dB      4:44 02-Cheppake Cheppake
DR8        0.00 dB   -10.26 dB      3:14 05-Manasu Marige Mounamgane
DR7        0.00 dB    -9.05 dB      3:54 03-Hey Thikamaka Modhale
DR7        0.00 dB    -8.14 dB      3:19 04-Jagadale Raani
--------------------------------------------------------------------------------

Number of tracks:  5
Official DR value: DR8

Samplerate:        96000 Hz
Channels:          2
Bits per sample:   24
Bitrate:           2910 kbps
Codec:             FLAC
================================================================================