Maanaadu [Original Sound Track] (Tamil) [2021] (U1 Records)

[16-Bit 44.0 kHz] Maanaadu [Original Sound Track] (Tamil) [2021] (U1 Records) 2021

No permission to download
Maanaadu [Original Sound Track] (Tamil) [2021] (U1 Records)

jyw9opaqks7fa_600.jpg

Album / Movie : Maanaadu incl. OST
Music / Composer : Yuvan Shankar Raja
Year Released: 2021

Label: U1 Records.
Language: Tamil
Ripper Note: U1, VP & STR combo 🔥 Enjoy the Quality !

Tracklist :

1 - Meherezylaa - Yuvan Shankar Raja, Bhavatharani & Rizwan
2 - Voice Of Unity - Yuvan Shankar Raja, Silambarasan TR & Arivu
3 - Dhanush Kodi's Theme - Yuvan Shankar Raja
4 - Maanaadu Theme - Yuvan Shankar Raja
5 - A walk in the fire - Theme - Yuvan Shankar Raja
6 - Dead End - Theme - Yuvan Shankar Raja
7 - Follow my lead - Theme - Yuvan Shankar Raja


Spek :

03. Dhanush Kodi's Theme.flac.png

Dynamic Range log :
Code:
foobar2000 1.6.6 / Dynamic Range Meter 1.1.1
log date: 2021-11-25 16:10:24

--------------------------------------------------------------------------------
Analyzed: Yuvan Shankar Raja, Bhavatharani & Rizwan / Maanaadu (1)
          Yuvan Shankar Raja, Silambarasan TR & Arivu / Maanaadu (2)
          Yuvan Shankar Raja / Maanaadu (3-7)
--------------------------------------------------------------------------------

DR         Peak         RMS     Duration Track
--------------------------------------------------------------------------------
DR7       -0.18 dB    -8.55 dB      4:19 01-Meherezylaa
DR7        0.00 dB    -9.26 dB      3:58 02-Voice Of Unity
DR8        0.00 dB   -10.62 dB      1:56 03-Dhanush Kodi's Theme
DR7        0.00 dB    -8.85 dB      2:19 04-Maanaadu Theme
DR7        0.00 dB   -10.07 dB      2:37 05-A walk in the fire - Theme
DR9       -0.22 dB   -11.95 dB      1:23 06-Dead End - Theme
DR7        0.00 dB   -10.74 dB      1:47 07-Follow my lead - Theme
--------------------------------------------------------------------------------

Number of tracks:  7
Official DR value: DR7

Samplerate:        44100 Hz
Channels:          2
Bits per sample:   16
Bitrate:           738 kbps
Codec:             FLAC
================================================================================
Author
Axel
Downloads
24
Views
195
First release
Last update
Rating
0.00 star(s) 0 ratings