Love Story (Telugu) [2021] (Aditya Music)

[16-Bit 44.0 kHz] Love Story (Telugu) [2021] (Aditya Music) 2021

No permission to download
Love Story (Telugu) [2021] (Aditya Music)

w23jtpfqmy5vb_600.jpg

Album / Movie : Love Story
Music / Composer : Pawan Ch
Year Released: 2021

Label: Aditya Music
Language: Telugu
Ripper Note: Enjoy

Tracklist :

1 - Ay Pilla - Haricharan
2 - Ay Pilla (Male Version) - Haricharan
3 - Nee Chitram Choosi - Anurag Kulkarni
4 - Saranga Dariya - Mangli
5 - Evo Evo Kalale - Jonita Gandhi & Nakul Abhyankar
6 - Winner Winner Bro - Abhijith Rao


Spek :

04. Saranga Dariya.flac.png

Quality Check log :
Code:
foobar2000 1.6.6 / Dynamic Range Meter 1.1.1
log date: 2021-10-01 17:15:39

--------------------------------------------------------------------------------
Analyzed: Abhijith Rao / Love Story (1)
          Anurag Kulkarni / Love Story (2)
          Haricharan / Love Story (3-4)
          Jonita Gandhi & Nakul Abhyankar / Love Story (5)
          Mangli / Love Story (6)
--------------------------------------------------------------------------------

DR         Peak         RMS     Duration Track
--------------------------------------------------------------------------------
DR5        0.00 dB    -7.12 dB      3:57 06-Winner Winner Bro
DR6       -0.11 dB    -8.38 dB      4:22 03-Nee Chitram Choosi
DR10      -0.10 dB   -13.59 dB      1:10 01-Ay Pilla
DR9       -0.51 dB   -12.41 dB      4:14 02-Ay Pilla (Male Version)
DR7        0.00 dB    -9.41 dB      4:28 05-Evo Evo Kalale
DR7        0.00 dB    -8.71 dB      3:50 04-Saranga Dariya
--------------------------------------------------------------------------------

Number of tracks:  6
Official DR value: DR7

Samplerate:        44100 Hz
Channels:          2
Bits per sample:   16
Bitrate:           1011 kbps
Codec:             FLAC
================================================================================