Kurup (Malayalam) [2021] (SaReGaMa)

[16-Bit 44.0 kHz] Kurup (Malayalam) [2021] (SaReGaMa) 2021

No permission to download
Kurup (Malayalam) [2021] (SaReGaMa)

u3rop31w2nasb_600.jpg

Album / Movie : Kurup
Music / Composer : Sushin Shyam, Kakkodan Sulaiman & Leo Tom
Year Released: 2021

Label: SaReGaMa Music.
Language: Malayalam
Ripper Note: Enjoy the Quality !

Tracklist :

1 - PakalIravukal - Neha Nair
2 - Dingiri Dingale - Dulquer Salmaan
3 - Neela Kadalin Adiyil - Anand Sreeraj
4 - Paathira Kaalam - Tribemama Marykali
5 - Mele Theera - Anand Sreeraj


Spek :

04. Paathira Kaalam.flac.png

Dynamic Range log :
Code:
foobar2000 1.6.6 / Dynamic Range Meter 1.1.1
log date: 2021-11-17 21:31:16

--------------------------------------------------------------------------------
Analyzed: Anand Sreeraj / Kurup (Malayalam) (1-2)
          Dulquer Salmaan / Kurup (Malayalam) (3)
          Neha Nair / Kurup (Malayalam) (4)
          Tribemama Marykali / Kurup (Malayalam) (5)
--------------------------------------------------------------------------------

DR         Peak         RMS     Duration Track
--------------------------------------------------------------------------------
DR7       -1.98 dB   -11.43 dB      2:17 03-Neela Kadalin Adiyil
DR6       -1.99 dB   -11.52 dB      2:12 05-Mele Theera
DR7       -0.85 dB    -9.73 dB      3:01 02-Dingiri Dingale
DR7       -0.71 dB    -9.57 dB      3:33 01-PakalIravukal
DR6       -1.98 dB    -9.87 dB      3:49 04-Paathira Kaalam
--------------------------------------------------------------------------------

Number of tracks:  5
Official DR value: DR7

Samplerate:        44100 Hz
Channels:          2
Bits per sample:   16
Bitrate:           823 kbps
Codec:             FLAC
================================================================================
Author
Axel
Downloads
8
Views
131
First release
Last update
Rating
0.00 star(s) 0 ratings