Kasada Tabara (Tamil) [2021] (Muzik 247)

[24-Bit 44.0 kHz] Kasada Tabara (Tamil) [2021] (Muzik 247) 2021

No permission to download
Kasada Tabara (Tamil) [2021] (Muzik 247)

bnycj99pha5ya_600.jpg

Album / Movie : Kasada Tabara
Music / Composer : Sean Roldan, Sam C.S., Premgi Amaren, Ghibran, Santhosh Narayanan, Yuvan Shankar Raja
Year Released: 2010

Label: Muzik 247.
Language: Tamil
Ripper Note: Enjoy

Tracklist :

1 - Nee Podhum Kanna - Sean Roldan
2 - Vidhi Ezhudhiya Paattu - Sivam & Sam C. S.
3 - Vaa Un Neram Vandhadhae - Premgi Amaren & Sakthi Amaran
4 - Irai Thandha - Deepthi Suresh & Ghibran
5 - Vaazhvomae - Santhosh Narayanan
6 - Enakkenna Aachu - Yuvan Shankar Raja



Spek :

06. Enakkenna Aachu.flac.png

Quality Check log :
Code:
foobar2000 1.6.4 / Dynamic Range Meter 1.1.1
log date: 2021-08-29 19:21:55

--------------------------------------------------------------------------------
Analyzed: Deepthi Suresh & Ghibran / Kasada Tabara (1)
          Premgi Amaren & Sakthi Amaran / Kasada Tabara (2)
          Santhosh Narayanan / Kasada Tabara (3)
          Sean Roldan / Kasada Tabara (4)
          Sivam & Sam C. S. / Kasada Tabara (5)
          Yuvan Shankar Raja / Kasada Tabara (6)
--------------------------------------------------------------------------------

DR         Peak         RMS     Duration Track
--------------------------------------------------------------------------------
DR6        0.00 dB    -8.18 dB      3:22 04-Irai Thandha
DR9        0.00 dB   -10.30 dB      2:46 03-Vaa Un Neram Vandhadhae
DR9        0.00 dB   -12.35 dB      2:43 05-Vaazhvomae
DR7       -1.00 dB    -9.99 dB      4:01 01-Nee Podhum Kanna
DR8        0.00 dB   -10.40 dB      3:38 02-Vidhi Ezhudhiya Paattu
DR8       -0.17 dB    -9.48 dB      3:44 06-Enakkenna Aachu
--------------------------------------------------------------------------------

Number of tracks:  6
Official DR value: DR8

Samplerate:        44100 Hz
Channels:          2
Bits per sample:   24
Bitrate:           1599 kbps
Codec:             FLAC
================================================================================