Jango (Tamil) [2021] (Think Music)

[24-Bit 48.0 kHz] Jango (Tamil) [2021] (Think Music) 2021

No permission to download
Jango (Tamil) [2021] (Think Music)

sjr8sq784z7vc_600.jpg

Album / Movie : Jango
Music / Composer : Ghibran
Year Released: 2021

Label: Think Music.
Language: Tamil
Ripper Note: Ghibhran

Tracklist :

1 - Anale Anale - Ghibran & Haricharan
2 - Jango - Ghibran & Yazin Nizar
3 - Kanava Kanava - Ghibran & Namitha Babu


Spek :

03. Kanava Kanava.flac.png

Quality Check log :
Code:
foobar2000 1.6.6 / Dynamic Range Meter 1.1.1
log date: 2021-09-07 08:21:26

--------------------------------------------------------------------------------
Analyzed: Ghibran & Haricharan / Jango (1)
          Ghibran & Namitha Babu / Jango (2)
          Ghibran & Yazin Nizar / Jango (3)
--------------------------------------------------------------------------------

DR         Peak         RMS     Duration Track
--------------------------------------------------------------------------------
DR5       -1.00 dB    -7.42 dB      4:09 01-Anale Anale
DR5       -1.00 dB    -8.35 dB      4:29 03-Kanava Kanava
DR6       -1.00 dB    -8.03 dB      3:16 02-Jango
--------------------------------------------------------------------------------

Number of tracks:  3
Official DR value: DR5

Samplerate:        48000 Hz
Channels:          2
Bits per sample:   24
Bitrate:           1801 kbps
Codec:             FLAC
================================================================================