Jai Bhim (Tamil) [2021] (Sony Music)

[24-Bit 48.0 kHz] Jai Bhim (Tamil) [2021] (Sony Music) 2021

No permission to download
Jai Bhim (Tamil) [2021] (Sony Music)

mh54k6cd5wizb_600.jpg

Album / Movie : Jai Bhim (Tamil)
Music / Composer : Sean Roldan
Year Released: 2021

Label: Sony Music.
Language: Tamil
Ripper Note: πŸŽ†πŸŽ‡ Happy Diwali πŸŽ†πŸŽ‡

Tracklist :

1 - Power - Sean Roldan & Arivu
2 - Vettakaara Kootam - Anthony Daasan, Niranjana Ramanan & Yugabharathi
3 - Polladha Ulagathiley - Sean Roldan & Yugabharathi
4 - Sendumalli - Sean Roldan, Ananthu, Kalyani Nair & Yugabharathi
5 - Thala Kodhum - Sean Roldan, Pradeep Kumar & Raju Murugan


Spek :

03. Polladha Ulagathiley.flac.png

Quality Check log :
Code:
foobar2000 1.6.6 / Dynamic Range Meter 1.1.1
log date: 2021-11-02 23:34:26

--------------------------------------------------------------------------------
Analyzed: Anthony Daasan, Niranjana Ramanan & Yugabharathi / Jai Bhim (Tamil) (1)
          Sean Roldan & Arivu / Jai Bhim (Tamil) (2)
          Sean Roldan & Yugabharathi / Jai Bhim (Tamil) (3)
          Sean Roldan, Ananthu, Kalyani Nair & Yugabharathi / Jai Bhim (Tamil) (4)
          Sean Roldan, Pradeep Kumar & Raju Murugan / Jai Bhim (Tamil) (5)
--------------------------------------------------------------------------------

DR         Peak         RMS     Duration Track
--------------------------------------------------------------------------------
DR11       0.00 dB   -12.16 dB      3:25 02-Vettakaara Kootam
DR11      -1.00 dB   -13.67 dB      3:39 01-Power
DR8       -1.00 dB   -10.62 dB      5:08 03-Polladha Ulagathiley
DR10      -0.90 dB   -11.94 dB      4:10 04-Sendumalli
DR10      -1.00 dB   -13.07 dB      3:49 05-Thala Kodhum
--------------------------------------------------------------------------------

Number of tracks:  5
Official DR value: DR10

Samplerate:        48000 Hz
Channels:          2
Bits per sample:   24
Bitrate:           1646 kbps
Codec:             FLAC
================================================================================
Author
Axel
Downloads
11
Views
189
First release
Last update
Rating
0.00 star(s) 0 ratings