Ganga Gowri (Tamil) [1997] (Alai Osai) [Malayasia Edition]

[Audio CD] Ganga Gowri (Tamil) [1997] (Alai Osai) [Malayasia Edition] 1997

No permission to download
Ganga Gowri (Tamil) [1997] (Alai Osai) [Malayasia Edition]



Album / Movie : Ganga Gowri
Music / Composer : Sirpy
Year Released: 1997

Label: Alai Osai.
Language: Tamil
Ripper Note: Quality is 🔥

Tracklist :

1 - Kadhalare Kadhalare - Sirpy
2 - Margazhi Neerada - Mano
3 - Poonthendrale Velaiyadu - Mano & Sujatha
4 - Kadhal Solla Vandhen - P. Unni Krishnan, Sujatha Mohan
5 - Poovukkul Puthaiyal - Mano
6 - Kadhalare Kadhalare - Sirpy
7 - Bull Bull Tara - Mano


Spek :

07. Bull Bull Tara.wav.png

Quality Check log :
Code:
foobar2000 1.6.6 / Dynamic Range Meter 1.1.1
log date: 2021-09-09 14:24:41

--------------------------------------------------------------------------------
Analyzed: Mano & Sujatha / Ganga Gowri (1)
          Mano / Ganga Gowri (2-4)
          P. Unni Krishnan, Sujatha Mohan / Ganga Gowri (5)
          Sirpy / Ganga Gowri (6-7)
--------------------------------------------------------------------------------

DR         Peak         RMS     Duration Track
--------------------------------------------------------------------------------
DR12       0.00 dB   -13.85 dB      5:04 03-Poonthendrale Velaiyadu
DR13       0.00 dB   -14.17 dB      5:17 02-Margazhi Neerada
DR13       0.00 dB   -14.64 dB      4:30 05-Poovukkul Puthaiyal
DR14       0.00 dB   -16.01 dB      4:57 07-Bull Bull Tara
DR11       0.00 dB   -13.43 dB      4:54 04-Kadhal Solla Vandhen
DR13       0.00 dB   -14.06 dB      5:00 01-Kadhalare Kadhalare
DR12       0.00 dB   -14.02 dB      4:59 06-Kadhalare Kadhalare
--------------------------------------------------------------------------------

Number of tracks:  7
Official DR value: DR13

Samplerate:        44100 Hz
Channels:          2
Bits per sample:   16
Bitrate:           1411 kbps
Codec:             PCM
================================================================================