Film Hits of Yesudas (Hindi) [2000] (EMI) [US Edition]

[Audio CD] Film Hits of Yesudas (Hindi) [2000] (EMI) [US Edition] 2000

No permission to download
Film Hits of Yesudas (Hindi) [2000] (EMI) [US Edition]



Album / Movie : Film Hits of Yesudas
Music / Composer : Various Artists
Year Released: 2000

Label: EMI.
Language: Hindi
Ripper Note: Quality is 🔥

Tracklist :

1 - Maana Ho Tum - Toote Khilone - Yesudas
2 - Gori Tera Gaon - Chitchor - Yesudas
3 - Ni Sa Ga Ma Pa - Aanand Mahal - Yesudas
4 - Chand Akela - Alaap - Yesudas
5 - Ka Karoon Sajani - Swami - Yesudas
6 - Dil Ke Tukde Tukde Karke - Dada - Yesudas
7 - Too Jo Mere Sur Mein - Chitchor - Yesudas
8 - Chand Jaise Mukhde Pe - Sawan Ko Aane Do - Yesudas
9 - Aye Mere Udas Man - Maan Abhiman - Yesudas
10 - Neele Ambar Ke Tale - Sufed Jhooth - Yesudas
11 - Ab Charaghon Ka Koi Kaam Nahin - Baawri - Yesudas
12 - Koi Gata Main So Jata - Alaap - Yesudas
13 - Aaj Se Pehle - Chitchor - Yesudas
14 - Sunayna Sunayna - Sunanyana - Yesudas
15 - Jaanam Jaanam - Sawan Ko Aane do - Yesudas
16 - Mohabbat Bade Kaam Ki Cheez Hai - Trishul - Yesudas



Spek :

01. Maana Ho Tum - Toote Khilone.wav.png

Quality Check log :
Code:
foobar2000 1.6.6 / Dynamic Range Meter 1.1.1
log date: 2021-09-09 14:07:20

--------------------------------------------------------------------------------
Analyzed: Yesudas / Film Hits of Yesudas
--------------------------------------------------------------------------------

DR         Peak         RMS     Duration Track
--------------------------------------------------------------------------------
DR9       -3.27 dB   -13.71 dB      5:28 01-Maana Ho Tum - Toote Khilone
DR10      -3.21 dB   -14.79 dB      3:15 02-Gori Tera Gaon - Chitchor
DR9       -4.43 dB   -14.71 dB      4:53 03-Ni Sa Ga Ma Pa - Aanand Mahal
DR8       -5.24 dB   -14.46 dB      3:35 04-Chand Akela - Alaap
DR10      -3.10 dB   -14.44 dB      4:33 05-Ka Karoon Sajani - Swami
DR9       -2.89 dB   -14.28 dB      3:03 06-Dil Ke Tukde Tukde Karke - Dada
DR9       -3.31 dB   -14.58 dB      5:08 07-Too Jo Mere Sur Mein - Chitchor
DR9       -4.17 dB   -15.00 dB      4:07 08-Chand Jaise Mukhde Pe - Sawan Ko Aane Do
DR7       -4.70 dB   -13.98 dB      4:41 09-Aye Mere Udas Man - Maan Abhiman
DR7       -5.77 dB   -14.23 dB      3:12 10-Neele Ambar Ke Tale - Sufed Jhooth
DR9       -5.08 dB   -14.75 dB      6:54 11-Ab Charaghon Ka Koi Kaam Nahin - Baawri
DR7       -5.84 dB   -14.47 dB      3:08 12-Koi Gata Main So Jata - Alaap
DR8       -4.60 dB   -14.70 dB      5:01 13-Aaj Se Pehle - Chitchor
DR8       -5.28 dB   -14.67 dB      5:37 14-Sunayna Sunayna - Sunanyana
DR8       -4.93 dB   -14.39 dB      4:21 15-Jaanam Jaanam - Sawan Ko Aane do
DR9       -4.87 dB   -14.85 dB      4:37 16-Mohabbat Bade Kaam Ki Cheez Hai - Trishul
--------------------------------------------------------------------------------

Number of tracks:  16
Official DR value: DR9

Samplerate:        44100 Hz
Channels:          2
Bits per sample:   16
Bitrate:           1411 kbps
Codec:             PCM
================================================================================