Enemy (Tamil) [2021] (Divo Tv)

[16-Bit 44.0 kHz] Enemy (Tamil) [2021] (Divo Tv) 2021

No permission to download
Enemy (Tamil) [2021] (Divo Tv)

600x600bb.jpg

Album / Movie : Enemy (Tamil)
Music / Composer : Thaman S, Sam C.S.
Year Released: 2021

Label: Divo Tv.
Language: Tamil
Ripper Note: Happy Diwali ๐ŸŽ†๐ŸŽ‡

Tracklist :

1 - Pathala - Thaman S, Deepak Blue
2 - Tum Tum - Thaman S, Sri Vardhini, Aditi Bhavaraju, Satya Yamini, Roshini JKV, Tejaswini
3 - Little India - Thaman S, Sarath Santosh, Arivu
4 - Orey Naan Orey Nee - Sam C.S., Govind Prasad
5 - Run & Die (Theme) - Sam C.S., Lavita M. Lobo


Spek :

04. Orey Naan Orey Nee.flac.png

Quality Check log :
Code:
foobar2000 1.6.6 / Dynamic Range Meter 1.1.1
log date: 2021-11-02 22:17:09

--------------------------------------------------------------------------------
Analyzed: Sam C.S., Govind Prasad / Enemy (Tamil) (Original Motion Picture Soundtrack) (1)
          Sam C.S., Lavita M. Lobo / Enemy (Tamil) (Original Motion Picture Soundtrack) (2)
          Thaman S, Deepak Blue / Enemy (Tamil) (Original Motion Picture Soundtrack) (3)
          Thaman S, Sarath Santosh, Arivu / Enemy (Tamil) (Original Motion Picture Soundtrack) (4)
          Thaman S, Sri Vardhini, Aditi Bhavaraju, Satya Yamini, Roshini JKV, Tejaswini / Enemy (Tamil) (Original Motion Picture Soundtrack) (5)
--------------------------------------------------------------------------------

DR         Peak         RMS     Duration Track
--------------------------------------------------------------------------------
DR7        0.00 dB    -9.87 dB      2:37 04-Orey Naan Orey Nee
DR7        0.00 dB    -9.02 dB      1:46 05-Run & Die (Theme)
DR5        0.00 dB    -5.83 dB      4:16 01-Pathala
DR6        0.00 dB    -7.42 dB      4:19 03-Little India
DR5        0.00 dB    -6.87 dB      3:49 02-Tum Tum
--------------------------------------------------------------------------------

Number of tracks:  5
Official DR value: DR6

Samplerate:        44100 Hz
Channels:          2
Bits per sample:   16
Bitrate:           1020 kbps
Codec:             FLAC
================================================================================
Author
Axel
Downloads
10
Views
216
First release
Last update
Rating
0.00 star(s) 0 ratings