Doctor (Tamil) [2021] (Sony Music)

[24-Bit 48.0 kHz] Doctor (Tamil) [2021] (Sony Music) 2021

No permission to download
Doctor (Tamil) [2021] (Sony Music)

zvujaickrqpmc_600.jpg

Album / Movie : Doctor
Music / Composer : Anirudh Ravichander
Year Released: 2021

Label: Sony Music
Language: Tamil
Ripper Note: Anirudh + Nelson = 🔥

Tracklist :

1 - Chellamma - Anirudh Ravichander & Jonita Gandhi
2 - Nenjame - Anirudh Ravichander
3 - So Baby - Anirudh Ravichander & Ananthakrrishnan
4 - Soul of Doctor (Theme) - Anirudh Ravichander & Niranjana Ramanan


Spek :

01. Chellamma.flac.png

Quality Check log :
Code:
foobar2000 1.6.6 / Dynamic Range Meter 1.1.1
log date: 2021-10-06 07:49:25

--------------------------------------------------------------------------------
Analyzed: Anirudh Ravichander & Ananthakrrishnan / Doctor  (1)
          Anirudh Ravichander & Jonita Gandhi / Doctor  (2)
          Anirudh Ravichander & Niranjana Ramanan / Doctor  (3)
          Anirudh Ravichander / Doctor  (4)
--------------------------------------------------------------------------------

DR         Peak         RMS     Duration Track
--------------------------------------------------------------------------------
DR5        0.00 dB    -7.59 dB      4:13 03-So Baby
DR6       -0.10 dB    -8.36 dB      3:57 01-Chellamma
DR4        0.00 dB    -6.86 dB      1:04 04-Soul of Doctor (Theme)
DR6       -0.10 dB    -9.41 dB      4:17 02-Nenjame
--------------------------------------------------------------------------------

Number of tracks:  4
Official DR value: DR5

Samplerate:        48000 Hz
Channels:          2
Bits per sample:   24
Bitrate:           1705 kbps
Codec:             FLAC
================================================================================