Doctor (Original Background Score) (Tamil) [2021] (Sony Music)

[24-Bit 48.0 kHz] Doctor (Original Background Score) (Tamil) [2021] (Sony Music) 2021

No permission to download
Doctor (Original Background Score) (Tamil) [2021] (Sony Music)

iwk8udm0389jb_600.jpg

Album / Movie : Doctor (Original Background Score)
Music / Composer : Anirudh Ravichander
Year Released: 2021

Label: Sony Music.
Language: Tamil OST
Ripper Note: Enjoy !

Tracklist :

1 - Doctor Theme (Background Score) - Anirudh Ravichander
2 - The Family (Background Score) - Anirudh Ravichander
3 - Varun Intro (Background Score) - Anirudh Ravichander
4 - Hand Game (Background Score) - Anirudh Ravichander
5 - The Twins (Background Score) - Anirudh Ravichander
6 - Metro Train Fight (Background Score) - Anirudh Ravichander
7 - Varun Fights (Background Score) - Anirudh Ravichander
8 - Terry Theme (Background Score) - Anirudh Ravichander
9 - Daughter Feels (Background Score) - Anirudh Ravichander
10 - Climax Fight (Background Score) - Anirudh Ravichander & Niranjana Ramanan



Spek :

10. Climax Fight (Background Score).flac.png

Quality Check log :
Code:
foobar2000 1.6.6 / Dynamic Range Meter 1.1.1
log date: 2021-10-21 13:42:22

--------------------------------------------------------------------------------
Analyzed: Anirudh Ravichander & Niranjana Ramanan / Doctor (Original Background Score) (1)
          Anirudh Ravichander / Doctor (Original Background Score) (2-10)
--------------------------------------------------------------------------------

DR         Peak         RMS     Duration Track
--------------------------------------------------------------------------------
DR7       -0.48 dB    -9.21 dB      2:13 10-Climax Fight (Background Score)
DR7       -0.49 dB   -10.19 dB      0:43 01-Doctor Theme (Background Score)
DR10      -0.48 dB   -11.61 dB      1:41 02-The Family (Background Score)
DR6       -0.48 dB    -8.89 dB      1:41 03-Varun Intro (Background Score)
DR10      -0.49 dB   -14.69 dB      1:49 04-Hand Game (Background Score)
DR8       -0.48 dB   -11.15 dB      2:15 05-The Twins (Background Score)
DR6       -0.48 dB    -8.57 dB      2:00 06-Metro Train Fight (Background Score)
DR7       -0.48 dB    -8.32 dB      0:46 07-Varun Fights (Background Score)
DR7       -0.48 dB   -10.49 dB      1:31 08-Terry Theme (Background Score)
DR8       -0.48 dB   -10.28 dB      2:12 09-Daughter Feels (Background Score)
--------------------------------------------------------------------------------

Number of tracks:  10
Official DR value: DR8

Samplerate:        48000 Hz
Channels:          2
Bits per sample:   24
Bitrate:           1633 kbps
Codec:             FLAC
================================================================================
Author
Axel
Downloads
16
Views
179
First release
Last update
Rating
0.00 star(s) 0 ratings