Deepavali (Tamil) [2006] (HIT Musics) [1st Edition]

[Audio CD] Deepavali (Tamil) [2006] (HIT Musics) [1st Edition] 2006

No permission to download
Deepavali (Tamil) [2006] (HIT Musics) [1st Edition]



Album / Movie : Deepavali
Music / Composer : Yuvan Shankar Raja
Year Released: 2006

Label: HIT Musics
Language: Tamil

Tracklist :

1 - Dhol Baje - Kay Kay, Shweta Menon
2 - Kannan Varum Velai - Madhushree, Anuradha Sriram
3 - Kadhal Vaithu - Vijay Yesudas
4 - Thoduven Thoduven - Haricharan, Maya
5 - Pogathey Pogathe - Yuvan Shankar Raja



Spek :

03. Kadhal Vaithu.wav.png

Quality Check log :
Code:
foobar2000 1.6.6 / Dynamic Range Meter 1.1.1
log date: 2021-07-26 23:14:22

--------------------------------------------------------------------------------
Analyzed: Haricharan, Maya / Deepavali (1)
          Kay Kay, Shweta Menon / Deepavali (2)
          Madhushree, Anuradha Sriram / Deepavali (3)
          Vijay Yesudas / Deepavali (4)
          Yuvan Shankar Raja / Deepavali (5)
--------------------------------------------------------------------------------

DR         Peak         RMS     Duration Track
--------------------------------------------------------------------------------
DR11      -0.09 dB   -13.56 dB      5:48 04-Thoduven Thoduven
DR13      -0.27 dB   -14.65 dB      4:26 01-Dhol Baje
DR11      -0.28 dB   -13.72 dB      3:54 02-Kannan Varum Velai
DR11      -1.14 dB   -14.38 dB      5:09 03-Kadhal Vaithu
DR11      -1.21 dB   -15.00 dB      5:30 05-Pogathey Pogathe
--------------------------------------------------------------------------------

Number of tracks:  5
Official DR value: DR12

Samplerate:        44100 Hz
Channels:          2
Bits per sample:   16
Bitrate:           1411 kbps
Codec:             PCM
================================================================================