Darbar (Tamil) [2019] (Divo) [1st Edition]

[Audio CD] Darbar (Tamil) [2019] (Divo) [1st Edition] 2019

No permission to download
Darbar (Tamil) [2019] (Divo) [1st Edition]



Album / Movie : Darbar
Music / Composer : Anirudh Ravichander
Year Released: 2019

Label: Divo
Language: Tamil

Tracklist :

1 - Chumma Kizhi - S. P. Balasubrahmanyam, Anirudh Ravichander & Rajinikanth
2 - Tharam Maara Single - Anirudh Ravichander & Arjun Chandy
3 - Thalaivar Theme - Anirudh Ravichander
4 - Dumm Dumm - Nakash Aziz
5 - Villain Theme - Anirudh Ravichander
6 - Thani Vazhi - Anirudh Ravichander




Spek :

02. Tharam Maara Single.wav.png

Quality Check log :
Code:
foobar2000 1.6.6 / Dynamic Range Meter 1.1.1
log date: 2021-07-25 18:20:29

--------------------------------------------------------------------------------
Analyzed: Anirudh Ravichander & Arjun Chandy / Darbar (1)
          Anirudh Ravichander / Darbar (2-4)
          Nakash Aziz / Darbar (5)
          S. P. Balasubrahmanyam, Anirudh Ravichander & Rajinikanth / Darbar (6)
--------------------------------------------------------------------------------

DR         Peak         RMS     Duration Track
--------------------------------------------------------------------------------
DR5        0.00 dB    -7.22 dB      3:50 02-Tharam Maara Single
DR5        0.00 dB    -7.91 dB      0:45 03-Thalaivar Theme
DR10       0.00 dB   -12.18 dB      1:07 05-Villain Theme
DR5        0.00 dB    -7.42 dB      3:27 06-Thani Vazhi
DR7        0.00 dB    -9.53 dB      4:34 04-Dumm Dumm
DR6        0.00 dB    -7.65 dB      3:52 01-Chumma Kizhi
--------------------------------------------------------------------------------

Number of tracks:  6
Official DR value: DR6

Samplerate:        44100 Hz
Channels:          2
Bits per sample:   16
Bitrate:           1411 kbps
Codec:             PCM
================================================================================