Cash (Hindi) [2021] (Sony Music)

[24-Bit 96.0 kHz] Cash (Hindi) [2021] (Sony Music) 2021

No permission to download
Cash (Hindi) [2021] (Sony Music)

600x600bb.jpg

Album / Movie : Cash
Music / Composer : Akull, Vayu, Gourov-Roshin, Denny & Ketan Sodha
Year Released: 2021

Label: Sony Music.
Language: Hindi
Ripper Note: Enjoy the Quality !

Tracklist :

1 - Tera Hua - Arijit Singh, Akull & Kunaal Vermaa
2 - Baki Nacho - Vayu, IP Singh & Yashika Sikka
3 - Lag Gayi - Gourov-Roshin, Yasser Desai & Rajesh Manthan
4 - Me & U - Denny, Benny Dayal, Nikhita Gandhi, Yas Narvekar & Kanica Parab Bhatt
5 - Me & U (Lounge Mix) - Denny, Nikhita Gandhi & Yash Narvekar
6 - Kaale Dhan (Cash Theme) - Ketan Sodha & Jasbir Singh Thandi


Spek :

01. Tera Hua.flac.png

Dynamic Range log :
Code:
foobar2000 1.6.6 / Dynamic Range Meter 1.1.1
log date: 2021-11-19 17:21:04

--------------------------------------------------------------------------------
Analyzed: Arijit Singh, Akull & Kunaal Vermaa / Cash  (1)
          Denny, Benny Dayal, Nikhita Gandhi, Yas Narvekar & Kanica Parab Bhatt / Cash  (2)
          Denny, Nikhita Gandhi & Yash Narvekar / Cash  (3)
          Gourov-Roshin, Yasser Desai & Rajesh Manthan / Cash  (4)
          Ketan Sodha & Jasbir Singh Thandi / Cash  (5)
          Vayu, IP Singh & Yashika Sikka / Cash  (6)
--------------------------------------------------------------------------------

DR         Peak         RMS     Duration Track
--------------------------------------------------------------------------------
DR4        0.00 dB    -5.88 dB      4:14 01-Tera Hua
DR5        0.00 dB    -6.92 dB      3:30 04-Me & U
DR4        0.00 dB    -5.61 dB      3:11 05-Me & U  (Lounge Mix)
DR5        0.00 dB    -6.78 dB      3:00 03-Lag Gayi
DR5        0.00 dB    -7.13 dB      3:56 06-Kaale Dhan  (Cash Theme)
DR4        0.00 dB    -5.80 dB      2:36 02-Baki Nacho
--------------------------------------------------------------------------------

Number of tracks:  6
Official DR value: DR5

Samplerate:        96000 Hz
Channels:          2
Bits per sample:   24
Bitrate:           2962 kbps
Codec:             FLAC
================================================================================
Author
Axel
Downloads
9
Views
128
First release
Last update
Rating
0.00 star(s) 0 ratings