Bellbottom (Hindi) [2021] (SaReGaMa)

[16-Bit 44.0 kHz] Bellbottom (Hindi) [2021] (SaReGaMa) 2021

No permission to download
Bellbottom (Hindi) [2021] (SaReGaMa)

k05g50hlm6zza_600.jpg

Album / Movie : Bellbottom
Music / Composer : Various Artists
Year Released: 2021

Label: SaReGaMa.
Language: Hindi
Ripper Note: Enjoy

Tracklist :

1 - BellBottom Theme - Dhoom Tara - Zara Khan
2 - Marjaawaan - Gurnazar
3 - Sakhiyan2.0 - Maninder Buttar
4 - Tum Aaogey - Armaan Malik
5 - KhairMangde (Female Vocals) - Pratibha Singh Baghel
6 - KhairMangde (Male Vocals) - Darshan Raval



Spek :

04. Tum Aaogey.flac.png

Quality Check log :
Code:
foobar2000 1.6.4 / Dynamic Range Meter 1.1.1
log date: 2021-08-28 18:35:37

--------------------------------------------------------------------------------
Analyzed: Armaan Malik / Bellbottom (Original Motion Picture Soundtrack) (1)
          Darshan Raval / Bellbottom (Original Motion Picture Soundtrack) (2)
          Gurnazar / Bellbottom (Original Motion Picture Soundtrack) (3)
          Maninder Buttar / Bellbottom (Original Motion Picture Soundtrack) (4)
          Pratibha Singh Baghel / Bellbottom (Original Motion Picture Soundtrack) (5)
          Zara Khan / Bellbottom (Original Motion Picture Soundtrack) (6)
--------------------------------------------------------------------------------

DR         Peak         RMS     Duration Track
--------------------------------------------------------------------------------
DR6        0.00 dB    -9.44 dB      4:45 04-Tum Aaogey
DR6        0.00 dB    -7.87 dB      3:48 06-KhairMangde (Male Vocals)
DR6        0.00 dB    -7.58 dB      3:46 02-Marjaawaan
DR5        0.00 dB    -6.95 dB      2:58 03-Sakhiyan2.0
DR6       -0.15 dB    -8.42 dB      3:50 05-KhairMangde (Female Vocals)
DR2        0.00 dB    -3.16 dB      2:06 01-BellBottom Theme - Dhoom Tara
--------------------------------------------------------------------------------

Number of tracks:  6
Official DR value: DR5

Samplerate:        44100 Hz
Channels:          2
Bits per sample:   16
Bitrate:           1030 kbps
Codec:             FLAC
================================================================================