Annaatthe (Tamil) [2021] (Sun Pictures)

[24-Bit 48.0 kHz] Annaatthe (Tamil) [2021] (Sun Pictures) 2021

No permission to download
Annaatthe (Tamil) [2021] (Sun Pictures)

jqg8vm6uirhuc_600.jpg

Album / Movie : Annaatthe
Music / Composer : D. Imman
Year Released: 2021

Label: Sun Pictures.
Language: Tamil
Ripper Note: πŸŽ†πŸŽ‡ Happy Diwali πŸŽ†πŸŽ‡

Tracklist :

1 - Annaatthe Annaatthe - S. P. Balasubrahmanyam
2 - Saara Kaattrae - Shreya Ghoshal & Sid Sriram
3 - Marudhaani - Nakash Aziz, Anthony Daasan & Vandana Srinivasan
4 - Vaa Saamy - Mukesh Mohamed, Nochipatti Thirumoorthy & Keezhakarai Samsutheen
5 - Yennuyire (Male Vocals) - Sid Sriram
6 - Yennuyire (Female Vocals) - K. S. Chithra
7 - Yennuyire (Instrumental) - D. Imman
8 - A For Annaatthe - Arivu
9 - Thalaivar Rampage Theme Music (Instrumental) - D. Imman
10 - Village Kuthu Theme Music (Instrumental) - D. Imman


Spek :

08. A For Annaatthe.flac.png

Quality Check log :
Code:
foobar2000 1.6.6 / Dynamic Range Meter 1.1.1
log date: 2021-11-02 23:46:55

--------------------------------------------------------------------------------
Analyzed: Arivu / Annaatthe (Original Motion Picture Soundtrack) (1)
          D. Imman / Annaatthe (Original Motion Picture Soundtrack) (2-4)
          K. S. Chithra / Annaatthe (Original Motion Picture Soundtrack) (5)
          Mukesh Mohamed, Nochipatti Thirumoorthy & Keezhakarai Samsutheen / Annaatthe (Original Motion Picture Soundtrack) (6)
          S. P. Balasubrahmanyam / Annaatthe (Original Motion Picture Soundtrack) (7)
          Shreya Ghoshal & Sid Sriram / Annaatthe (Original Motion Picture Soundtrack) (8)
          Sid Sriram / Annaatthe (Original Motion Picture Soundtrack) (9)
--------------------------------------------------------------------------------

DR         Peak         RMS     Duration Track
--------------------------------------------------------------------------------
DR6       -0.13 dB    -8.19 dB      3:41 08-A For Annaatthe
DR7       -0.13 dB   -10.15 dB      4:13 07-Yennuyire (Instrumental)
DR6       -0.13 dB    -8.61 dB      1:59 09-Thalaivar Rampage Theme Music (Instrumental)
DR7       -0.13 dB    -8.77 dB      1:55 10-Village Kuthu Theme Music (Instrumental)
DR7       -0.13 dB    -9.93 dB      4:11 06-Yennuyire (Female Vocals)
DR6       -0.13 dB    -7.42 dB      4:12 04-Vaa Saamy
DR6       -0.13 dB    -7.32 dB      4:21 01-Annaatthe Annaatthe
DR6       -0.13 dB    -8.32 dB      4:08 02-Saara Kaattrae
DR6       -0.13 dB    -8.97 dB      4:21 05-Yennuyire (Male Vocals)
--------------------------------------------------------------------------------

Number of tracks:  9
Official DR value: DR6

Samplerate:        48000 Hz
Channels:          2
Bits per sample:   24
Bitrate:           1835 kbps
Codec:             FLAC
================================================================================

--------------------------------------------------------------------------------
Statistics for: 03-Marudhaani
Number of samples: 25936378
Duration: 4:30
--------------------------------------------------------------------------------

                 Left              Right

Peak Value:      0.00 dB   ---      0.00 dB  
Avg RMS:        -7.91 dB   ---     -7.71 dB  
DR channel:      6.04 dB   ---      5.80 dB  
--------------------------------------------------------------------------------

Official DR Value: DR6

Samplerate:        96000 Hz
Channels:          2
Bits per sample:   24
Bitrate:           3074 kbps
Codec:             FLAC
================================================================================
Author
Axel
Downloads
26
Views
289
First release
Last update
Rating
0.00 star(s) 0 ratings